<?xml version="1.0" standalone="no"?>
<!DOCTYPE svg PUBLIC "-//W3C//DTD SVG 1.1//EN" "http://www.w3.org/Graphics/SVG/1.1/DTD/svg11.dtd" >
<svg xmlns="http://www.w3.org/2000/svg">
<metadata>Generated by IcoMoon</metadata>
<defs>
<font id="icomoon" horiz-adv-x="1024">
<font-face units-per-em="1024" ascent="960" descent="-64" />
<missing-glyph horiz-adv-x="1024" />
<glyph unicode="&#x20;" horiz-adv-x="512" d="" />
<glyph unicode="&#xe900;" glyph-name="arrow-down" d="M124.863 711.021c-28.564 28.564-74.876 28.564-103.44 0s-28.564-74.876 0-103.44l438.857-438.857c28.564-28.564 74.876-28.564 103.44 0l438.857 438.857c28.564 28.564 28.564 74.876 0 103.44s-74.876 28.564-103.44 0l-387.137-387.137-387.137 387.137z" />
<glyph unicode="&#xe901;" glyph-name="arrow-left" d="M772.271 62.176c28.167-28.167 28.167-73.836 0-102.003s-73.836-28.167-102.003 0l-432.762 432.762c-28.167 28.167-28.167 73.836 0 102.003l432.762 432.762c28.167 28.167 73.836 28.167 102.003 0s28.167-73.836 0-102.003l-381.76-381.76 381.76-381.76z" />
<glyph unicode="&#xe902;" glyph-name="arrow-light-left" d="M758.61 913.998c10.524 10.524 10.524 27.586 0 38.109s-27.586 10.524-38.109 0l-485.053-485.053c-10.524-10.524-10.524-27.586 0-38.109l485.053-485.053c10.524-10.524 27.586-10.524 38.109 0s10.524 27.586 0 38.109l-465.998 465.998 465.998 465.998z" />
<glyph unicode="&#xe903;" glyph-name="arrow-light-right" d="M235.448 913.998c-10.524 10.524-10.524 27.586 0 38.109s27.586 10.524 38.109 0l485.053-485.053c10.524-10.524 10.524-27.586 0-38.109l-485.053-485.053c-10.524-10.524-27.586-10.524-38.109 0s-10.524 27.586 0 38.109l465.998 465.998-465.998 465.998z" />
<glyph unicode="&#xe904;" glyph-name="arrow-link-left" d="M533.567 698.612c30.11 24.088 34.992 68.024 10.904 98.134s-68.024 34.992-98.134 10.904l-396.861-317.489c-34.937-27.95-34.937-81.088 0-109.038l396.861-317.489c30.11-24.088 74.046-19.206 98.134 10.904s19.206 74.046-10.904 98.134l-328.713 262.97 328.713 262.97zM930.909 514.28h-793.722c-38.56 0-69.818-31.259-69.818-69.818s31.259-69.818 69.818-69.818h793.722c38.56 0 69.818 31.259 69.818 69.818s-31.259 69.818-69.818 69.818z" />
<glyph unicode="&#xe905;" glyph-name="arrow-link-right" d="M490.433 698.612c-30.11 24.088-34.992 68.024-10.904 98.134s68.024 34.992 98.134 10.904l396.861-317.489c34.937-27.95 34.937-81.088 0-109.038l-396.861-317.489c-30.11-24.088-74.046-19.206-98.134 10.904s-19.206 74.046 10.904 98.134l328.713 262.97-328.713 262.97zM93.091 514.28h793.722c38.56 0 69.818-31.259 69.818-69.818s-31.259-69.818-69.818-69.818h-793.722c-38.56 0-69.818 31.259-69.818 69.818s31.259 69.818 69.818 69.818z" />
<glyph unicode="&#xe906;" glyph-name="arrow-right" d="M237.506 62.176c-28.167-28.167-28.167-73.836 0-102.003s73.836-28.167 102.003 0l432.762 432.762c28.167 28.167 28.167 73.836 0 102.003l-432.762 432.762c-28.167 28.167-73.836 28.167-102.003 0s-28.167-73.836 0-102.003l381.76-381.76-381.76-381.76z" />
<glyph unicode="&#xe907;" glyph-name="arrow-up" d="M124.863 168.725c-28.564-28.564-74.876-28.564-103.44 0s-28.564 74.876 0 103.44l438.857 438.857c28.564 28.564 74.876 28.564 103.44 0l438.857-438.857c28.564-28.564 28.564-74.876 0-103.44s-74.876-28.564-103.44 0l-387.137 387.137-387.137-387.137z" />
<glyph unicode="&#xe908;" glyph-name="close" d="M1007.338 33.115l-910.222 910.222c-22.216 22.216-58.237 22.216-80.453 0s-22.216-58.237 0-80.453l910.222-910.222c22.216-22.216 58.237-22.216 80.453 0s22.216 58.237 0 80.453zM926.885 943.338l-910.222-910.222c-22.216-22.216-22.216-58.237 0-80.453s58.237-22.216 80.453 0l910.222 910.222c22.216 22.216 22.216 58.237 0 80.453s-58.237 22.216-80.453 0z" />
<glyph unicode="&#xe909;" glyph-name="play" d="M277.756-35.338c-59.144-39.429-107.089-14.844-107.089 55.889v855.009c0 70.296 47.126 95.865 107.089 55.889l618.002-412.001c59.144-39.429 59.963-102.81 0-142.786l-618.002-412.001z" />
<glyph unicode="&#xe90a;" glyph-name="mail" horiz-adv-x="1512" d="M1512.369 783.557c0 97.447-78.996 176.443-176.443 176.443h-1160.113c-97.175-0.358-175.813-79.217-175.813-176.442 0 0 0-0.001 0-0.001v-671.114c0 0 0-0.001 0-0.001 0-97.225 78.637-176.084 175.778-176.442h1160.148c53.122 0.702 100.444 24.941 132.109 62.742l0.223 0.273v3.781c26.044 29.129 42.491 67.324 44.101 109.322zM107.756 764.652l421.573-287.98-421.573-350.996zM621.962 413.657l24.576-17.014c30.715-21.46 68.84-34.29 109.962-34.29s79.247 12.83 110.59 34.706l23.947 16.599 441.108-369.27h-1153.182zM983.040 476.672l421.573 289.241v-640.236zM1336.556 854.764v0l-533.11-365.489c-13.658-9.478-30.586-15.141-48.837-15.141s-35.179 5.663-49.123 15.329l-532.824 361.521h1163.264z" />
<glyph unicode="&#xe90b;" glyph-name="phone" d="M934.827 299.093c-0.251 0-0.549-0.001-0.847-0.001-62.86 0-123.313 10.306-179.761 29.32-4.786 2.159-14.906 4.081-25.476 4.081-22.638 0-43.218-8.815-58.493-23.201l-72.917-55.853c-120.991 63.048-217.357 159.139-279.038 276.331l51.625 72.682c16.335 16.363 26.437 38.954 26.437 63.904 0 9.788-1.555 19.214-4.431 28.042-17.675 51.799-27.981 112.206-27.981 175.020 0 0.495 0.001 0.989 0.002 1.484-0.242 49.224-40.264 89.097-89.599 89.097 0 0-0.001 0-0.001 0h-184.747c0 0-0.001 0-0.001 0-49.335 0-89.357-39.872-89.599-89.15 0.485-516.117 418.731-934.363 934.779-934.85 49.349 0.242 89.221 40.264 89.221 89.599 0 0 0 0.001 0 0.001v184.32c-0.241 49.152-40.021 88.932-89.15 89.173zM951.040 25.173c-0.231-8.86-7.354-15.982-16.192-16.213-475.822 0.485-861.402 386.065-861.888 861.819 0.231 8.907 7.354 16.029 16.192 16.26h185.195c8.86-0.231 15.982-7.354 16.213-16.192-0.001-0.54-0.002-1.154-0.002-1.769 0-70.767 11.555-138.835 32.881-202.42-1.305 1.501 1.255-6.179-8.559-16.419l-70.4-93.013c-4.682-6.047-7.505-13.74-7.505-22.092 0-6.116 1.514-11.878 4.187-16.932 73.644-149.259 191.783-267.397 336.927-339.207 9.165-4.46 14.91-5.945 21.002-5.945 8.355 0 16.057 2.792 22.226 7.495l95.911 72.895c2.986 2.874 7.052 4.644 11.531 4.644 1.826 0 3.583-0.294 5.226-0.837 59.289-20.255 127.729-31.967 198.904-31.967 0.381 0 0.763 0 1.144 0.001 8.801-0.232 15.923-7.354 16.154-16.192zM617.813 887.040c183.938-0.243 332.984-149.288 333.227-333.204-0.136-1.209-0.213-2.582-0.213-3.974 0-20.265 16.428-36.693 36.693-36.693s36.693 16.428 36.693 36.693c0 1.392-0.077 2.766-0.228 4.117-0.228 224.067-181.939 405.778-406.148 406.021-1.209 0.136-2.583 0.213-3.974 0.213-20.265 0-36.693-16.428-36.693-36.693s16.428-36.693 36.693-36.693c1.392 0 2.766 0.077 4.117 0.228zM617.813 675.413c67.393 0 122.027-54.633 122.027-122.027-0.136-1.185-0.213-2.559-0.213-3.951 0-20.265 16.428-36.693 36.693-36.693s36.693 16.428 36.693 36.693c0 1.392-0.077 2.766-0.228 4.117-1.189 106.691-87.976 192.879-194.949 193.114-1.208 0.136-2.582 0.213-3.974 0.213-20.265 0-36.693-16.428-36.693-36.693s16.428-36.693 36.693-36.693c1.392 0 2.766 0.077 4.117 0.228z" />
<glyph unicode="&#xe90c;" glyph-name="check-mark" d="M145.673 482.788c-33.325 33.325-87.355 33.325-120.68 0s-33.325-87.355 0-120.68l285.886-285.886c33.325-33.325 87.354-33.325 120.679-0.001l567.447 567.437c33.325 33.324 33.326 87.355 0.001 120.68s-87.355 33.326-120.68 0.001l-507.108-507.099-225.547 225.547z" />
<glyph unicode="&#xe90d;" glyph-name="home" d="M453.679 30.097c0-20.28-16.44-36.72-36.72-36.72h-237.603c-20.28 0-36.72 16.44-36.72 36.72v343.444h-105.841c-33.654 0-49.579 41.501-24.565 64.015l475.206 427.685c13.965 12.568 35.164 12.568 49.129 0l475.206-427.685c25.015-22.513 9.089-64.015-24.565-64.015h-105.841v-343.444c0-20.28-16.44-36.72-36.72-36.72h-237.603c-20.28 0-36.72 16.44-36.72 36.72v248.403h-116.641v-248.403zM380.238 315.22c0 20.28 16.44 36.72 36.72 36.72h190.082c20.28 0 36.72-16.44 36.72-36.72v-248.403h164.162v343.444c0 20.28 16.44 36.72 36.72 36.72h46.87l-379.514 341.562-379.514-341.562h46.87c20.28 0 36.72-16.44 36.72-36.72v-343.444h164.162v248.403z" />
<glyph unicode="&#xe90e;" glyph-name="minus-sign" d="M73.143 387.048h877.714c40.396 0 73.143 32.747 73.143 73.143s-32.747 73.143-73.143 73.143h-877.714c-40.396 0-73.143-32.747-73.143-73.143s32.747-73.143 73.143-73.143z" />
<glyph unicode="&#xe90f;" glyph-name="x-mark" d="M631.467 448l281.6 281.6c34.133 34.133 34.133 85.333 0 119.467s-85.333 34.133-119.467 0l-281.6-281.6-281.6 281.6c-34.133 34.133-85.333 34.133-119.467 0s-34.133-85.333 0-119.467l281.6-281.6-281.6-281.6c-34.133-34.133-34.133-85.333 0-119.467 17.067-17.067 34.133-25.6 59.733-25.6s42.667 8.533 59.733 25.6l281.6 281.6 281.6-281.6c17.067-17.067 34.133-25.6 59.733-25.6s42.667 8.533 59.733 25.6c34.133 34.133 34.133 85.333 0 119.467l-281.6 281.6z" />
<glyph unicode="&#xe910;" glyph-name="plus-sign" d="M438.857 521.143h-365.714c-40.396 0-73.143-32.747-73.143-73.143s32.747-73.143 73.143-73.143h365.714v-365.714c0-40.396 32.747-73.143 73.143-73.143s73.143 32.747 73.143 73.143v365.714h365.714c40.396 0 73.143 32.747 73.143 73.143s-32.747 73.143-73.143 73.143h-365.714v365.714c0 40.396-32.747 73.143-73.143 73.143s-73.143-32.747-73.143-73.143v-365.714z" />
<glyph unicode="&#xe911;" glyph-name="call-browser" horiz-adv-x="1035" d="M750.962 51.168c0.129-0.001 0.281-0.002 0.433-0.002 27.721 0 50.222 22.351 50.465 50.014v100.094c-0.243 27.687-22.744 50.037-50.465 50.037-0.152 0-0.304-0.001-0.456-0.002-0.25-0.001-0.573-0.001-0.897-0.001-34.352 0-67.415 5.524-98.347 15.732-2.679 1.142-8.328 2.168-14.218 2.168-12.775 0-24.421-4.829-33.214-12.761l-59.481-43.095c-63.357 31.621-113.994 80.731-146.643 141.007l42.259 57.409c9.263 9.088 15.004 21.736 15.004 35.726 0 5.579-0.913 10.945-2.598 15.956-9.741 28.016-15.425 60.713-15.425 94.738 0 0.083 0 0.165 0 0.248 0.001 0.121 0.002 0.278 0.002 0.435 0 27.418-21.864 49.729-49.108 50.449l-104.019 0.001c-0.001 0-0.001 0-0.002 0-27.72 0-50.221-22.35-50.465-50.012 2.918-281.279 231.598-508.156 513.268-508.156 1.374 0 2.747 0.005 4.118 0.016zM284.253 566.187h103.953c0.133 0.009 0.287 0.013 0.443 0.013 3.903 0 7.093-3.049 7.32-6.895 0.001-0.102 0.001-0.199 0.001-0.296 0-38.793 6.474-76.074 18.401-110.821s-0.716-1.913-4.598-7.089l-53.055-69.014c-2.141-3.293-3.415-7.321-3.415-11.646s1.273-8.354 3.466-11.73c39.381-79.953 103.297-142.894 181.792-180.082 5.534-2.972 9.408-4.142 13.554-4.142s8.020 1.17 11.308 3.199l72.372 53.864c1.164 0.734 2.58 1.169 4.098 1.169s2.934-0.435 4.13-1.188c32.769-10.923 70.534-17.236 109.774-17.236 0.369 0 0.737 0.001 1.106 0.002 0.075 0.008 0.23 0.013 0.386 0.013 3.903 0 7.093-3.049 7.32-6.895l0.001-99.659c-0.227-3.866-3.418-6.915-7.321-6.915-0.156 0-0.311 0.005-0.464 0.014-1.269-0.014-2.794-0.021-4.321-0.021-257.85 0-467.219 207.569-470.129 464.729-0.557 1.282-0.883 2.483-0.883 3.759 0 3.127 1.957 5.796 4.713 6.851zM358.443 820.677c0-19.058-15.063-34.507-33.644-34.507s-33.644 15.449-33.644 34.507c0 19.058 15.063 34.507 33.644 34.507s33.644-15.449 33.644-34.507zM173.83 820.677c0-19.058-15.063-34.507-33.644-34.507s-33.644 15.449-33.644 34.507c0 19.058 15.063 34.507 33.644 34.507s33.644-15.449 33.644-34.507zM883.383 960h-733.277c-83.014-1.213-149.872-68.676-150.106-151.809v-726.83c0-80.281 65.081-145.361 145.361-145.361h744.492c80.281 0 145.361 65.081 145.361 145.361v726.807c-0.245 83.756-68.076 151.587-151.808 151.831zM992.081 81.361c0-56.459-45.769-102.227-102.227-102.227h-744.492c-56.459 0-102.227 45.769-102.227 102.227v599.993h948.947zM992.081 724.057h-948.947v84.111c0.244 59.934 48.764 108.454 108.674 108.697h733.3c59.192-1.207 106.742-49.361 106.972-108.675zM266.136 820.677c0-19.058-15.063-34.507-33.644-34.507s-33.644 15.449-33.644 34.507c0 19.058 15.063 34.507 33.644 34.507s33.644-15.449 33.644-34.507z" />
<glyph unicode="&#xe912;" glyph-name="calendar" d="M874.667 874.667c-11.782 0-21.333-9.551-21.333-21.333s9.551-21.333 21.333-21.333c58.91 0 106.667-47.756 106.667-106.667v-64h-938.667v64c0 58.91 47.756 106.667 106.667 106.667 11.782 0 21.333 9.551 21.333 21.333s-9.551 21.333-21.333 21.333c-82.475 0-149.333-66.859-149.333-149.333v-640c0-82.475 66.859-149.333 149.333-149.333h725.333c82.475 0 149.333 66.859 149.333 149.333v640c0 82.475-66.859 149.333-149.333 149.333zM874.667-21.333h-725.333c-58.91 0-106.667 47.756-106.667 106.667v533.333h938.667v-533.333c0-58.91-47.756-106.667-106.667-106.667zM320 832h384c11.782 0 21.333 9.551 21.333 21.333s-9.551 21.333-21.333 21.333h-384c-11.782 0-21.333-9.551-21.333-21.333s9.551-21.333 21.333-21.333zM234.667 746.667c11.782 0 21.333 9.551 21.333 21.333v170.667c0 11.782-9.551 21.333-21.333 21.333s-21.333-9.551-21.333-21.333v-170.667c0-11.782 9.551-21.333 21.333-21.333zM789.333 746.667c11.782 0 21.333 9.551 21.333 21.333v170.667c0 11.782-9.551 21.333-21.333 21.333s-21.333-9.551-21.333-21.333v-170.667c0-11.782 9.551-21.333 21.333-21.333zM896 391.253c11.782 0 21.333 9.551 21.333 21.333s-9.551 21.333-21.333 21.333h-117.333v120.747c0 11.782-9.551 21.333-21.333 21.333s-21.333-9.551-21.333-21.333v-120.747h-202.667v120.747c0 11.782-9.551 21.333-21.333 21.333s-21.333-9.551-21.333-21.333v-120.747h-202.667v120.747c0 11.782-9.551 21.333-21.333 21.333s-21.333-9.551-21.333-21.333v-120.747h-117.333c-11.782 0-21.333-9.551-21.333-21.333s9.551-21.333 21.333-21.333h117.333v-184.747h-117.333c-11.782 0-21.333-9.551-21.333-21.333s9.551-21.333 21.333-21.333h117.333v-121.173c0-11.782 9.551-21.333 21.333-21.333s21.333 9.551 21.333 21.333v120.747h202.667v-120.747c0-11.782 9.551-21.333 21.333-21.333s21.333 9.551 21.333 21.333v120.747h202.667v-120.747c0-11.782 9.551-21.333 21.333-21.333s21.333 9.551 21.333 21.333v120.747h117.333c11.782 0 21.333 9.551 21.333 21.333s-9.551 21.333-21.333 21.333h-117.333v185.173zM288 206.080v185.173h202.667v-184.747zM736 206.080h-202.667v185.173h202.667z" />
<glyph unicode="&#xe913;" glyph-name="quote-close" d="M1024 532.697c0-309.068-186.799-448.318-478.886-468.697v132.458c156.232 23.774 261.519 98.494 261.519 247.934-135.854-27.171-224.159 54.342-224.159 173.214s81.512 190.196 207.177 190.196c122.269 0 234.348-101.891 234.348-275.104zM478.886 532.697c0-309.068-186.799-448.318-478.886-468.697v132.458c156.232 23.774 261.519 98.494 261.519 247.934-135.854-27.171-224.159 54.342-224.159 173.214s81.512 190.196 207.177 190.196c122.269 0 234.348-101.891 234.348-275.104z" />
<glyph unicode="&#xe914;" glyph-name="quote-open" d="M0 320.637c0 309.068 186.799 448.318 478.886 468.697v-132.458c-156.232-23.774-261.519-98.494-261.519-247.934 135.854 27.171 224.159-54.342 224.159-173.214s-81.512-190.196-207.177-190.196c-122.269 0-234.348 101.891-234.348 275.104zM545.114 320.637c0 309.068 186.799 448.318 478.886 468.697v-132.458c-156.232-23.774-261.519-98.494-261.519-247.934 135.854 27.171 224.159-54.342 224.159-173.214s-81.512-190.196-207.177-190.196c-122.269 0-234.348 101.891-234.348 275.104z" />
<glyph unicode="&#xe915;" glyph-name="facebook" horiz-adv-x="536" d="M528.14 952.686v-161.402h-95.963c-35.060 0-58.661-7.314-70.9-21.992-12.19-14.677-18.334-36.669-18.334-66.024v-115.566h179.102l-23.893-180.907h-155.16v-463.97h-187.099v463.97h-155.892v180.907h155.892v133.315c0 75.825 21.163 134.583 63.537 176.372 42.423 41.74 98.84 62.61 169.35 62.61 59.831 0 106.35-2.438 139.313-7.314z" />
<glyph unicode="&#xe916;" glyph-name="google-plus" horiz-adv-x="1536" d="M946.624 465.92c0-91.328-19.072-172.736-57.28-244.096-37.988-70.806-93.713-127.784-161.349-166.227-72.763-41.261-153.723-61.357-245.115-61.357-65.408 0-128 12.736-187.776 38.208-59.867 25.367-111.013 60.058-154.147 102.819-42.685 43.048-77.375 94.172-101.552 150.855-25.351 58.123-39.408 122.196-39.408 189.552 0 0.509 0.001 1.017 0.002 1.526 0 65.329 12.736 127.921 38.208 187.697 25.367 59.867 60.058 111.013 102.819 154.147 43.048 42.685 94.172 77.375 150.855 101.552 58.123 25.351 122.196 39.408 189.552 39.408 0.509 0 1.017-0.001 1.526-0.002 125.553 0 233.329-42.176 323.377-126.464l-131.072-125.824c-51.392 49.6-115.52 74.368-192.384 74.368-54.016 0-104-13.632-149.888-40.832-45.638-27.217-82.527-64.741-108.218-109.512-26.052-44.746-40.976-96.751-40.976-152.241 0-0.835 0.003-1.67 0.010-2.503-0.001-55.232 13.439-106.24 40.191-153.024s63.104-83.84 108.992-111.040c42.256-25.654 93.334-40.838 147.959-40.838 0.678 0 1.356 0.002 2.033 0.007 36.376-0.001 69.848 5.119 100.376 15.167 30.528 10.112 55.68 22.72 75.392 37.888 19.625 15.070 36.642 32.087 51.234 51.064 15.198 19.976 25.95 38.216 32.798 55.304 5.863 13.928 10.764 30.286 13.912 47.26l-273.816 1.508v166.016h455.872c5.248-27.712 7.872-54.464 7.872-80.384zM1517.824 546.304v-138.368h-137.728v-137.664h-138.304v137.664h-137.664v138.368h137.6v137.664h138.368v-137.664h137.728z" />
<glyph unicode="&#xe917;" glyph-name="linkedin" d="M230.701 644.668v-655.059h-218.112v655.059h218.112zM244.555 846.938c0.482-32.166-10.662-59.031-33.37-80.595-22.709-21.624-52.525-32.407-89.57-32.407h-1.325c-36.141 0-65.175 10.842-87.221 32.407s-33.069 48.429-33.069 80.595c0 32.648 11.324 59.633 34.033 81.016s52.344 32.045 88.907 32.045 65.897-10.662 87.944-32.045c22.046-21.384 33.25-48.369 33.732-81.016zM1015.326 365.056v-375.447h-217.449v350.328c0 46.261-8.915 82.522-26.805 108.785-17.83 26.202-45.719 39.273-83.607 39.273-27.708 0-51.019-7.59-69.752-22.769-18.673-15.24-32.708-34.033-41.984-56.501-4.819-13.252-7.228-31.081-7.228-53.609v-365.508h-217.449c0.843 175.887 1.265 318.404 1.265 427.671 0 109.327-0.181 174.502-0.602 195.704l-0.723 31.684h217.449v-95.172h-1.265c8.794 14.095 17.83 26.443 27.106 37.045 11.35 12.467 23.561 23.723 36.689 33.847 16.988 13.074 36.164 22.942 56.969 28.978 22.958 6.812 47.947 10.559 73.81 10.559 1.075 0 2.149-0.006 3.221-0.019 75.192 0.002 135.788-24.996 181.627-75.052 45.779-49.995 68.728-123.241 68.728-219.799z" />
<glyph unicode="&#xe918;" glyph-name="twitter" horiz-adv-x="1297" d="M1260.817 838.417c-35.847-52.217-78.815-96.445-128.115-132.534-1.070-10.711-0.812-22.020-0.812-33.389 0-74.463-11.087-146.337-31.701-214.060-21.423-70.491-52.882-136.485-92.73-196.422-40.462-61.611-89.252-116.998-144.824-164.71-58.114-49.685-126.926-88.665-207.413-117.679-80.555-29.082-166.707-43.622-258.458-43.622-144.521 0-276.753 38.639-396.766 116.053 18.637-2.185 39.458-3.277 62.396-3.277 120.013 0 226.918 36.864 320.853 110.455-56.889 0.52-109.172 19.817-151.057 51.982-41.893 31.101-73.778 74.773-90.109 125.43 17.114-0.942 33.362-2.307 48.312-2.307 22.938 0 45.602 3.004 67.994 8.875-60.252 12.076-111.577 44.046-148.052 88.635-36.928 43.598-59.163 99.901-59.163 161.396 0 1.258 0.009 2.515 0.028 3.769l-0.002 3.019c33.617-19.255 73.622-31.218 116.284-32.755-34.594 23.529-62.933 54.422-82.843 90.607-20.311 36.359-31.877 78.198-31.877 122.738 0 0.615 0.002 1.23 0.007 1.845-0.001 46.873 11.741 90.359 35.225 130.295 64.028-78.432 142.419-142.474 231.519-188.746 96.639-49.709 195.694-76.197 301.302-81.522-3.991 17.733-6.323 38.128-6.417 59.051 0 71.543 25.258 132.505 75.571 182.886 45.313 46.655 108.635 75.605 178.72 75.605 1.441 0 2.879-0.012 4.314-0.037 74.468 0.003 137.41-27.167 188.61-81.576 61.82 12.1 116.793 33.777 166.244 63.668-21.672-62.321-62.020-112.022-114.689-143.037 53.967 5.724 104.275 19.83 150.915 40.67z" />
<glyph unicode="&#xe919;" glyph-name="youtube" horiz-adv-x="1390" d="M982.309 468.846c0 18.944-7.68 32.768-23.040 41.472l-392.923 245.541c-7.315 5.062-16.375 8.086-26.142 8.086-8.765 0-16.961-2.435-23.948-6.667-14.942-7.541-25.148-22.986-25.148-40.814 0-0.731 0.017-1.458 0.051-2.18l-0.004-490.979c0-19.456 8.411-33.792 25.307-43.008 8.192-4.096 16.091-6.144 23.845-6.144 10.24 0 18.871 2.56 26.039 7.68l392.923 245.541c15.36 8.777 23.040 22.528 23.040 41.472zM1375.232 468.846c0-49.152-0.219-87.479-0.731-115.127s-2.706-62.537-6.583-104.741c-3.633-42.589-9.74-81.233-18.357-118.92-7.096-31.608-24.724-63.059-51.86-88.659-27.063-25.6-58.807-40.448-95.086-44.544-113.664-12.8-285.257-19.163-514.999-19.163-229.669 0-401.335 6.363-514.926 19.163-37.405 4.155-70.409 20.365-95.654 44.597-26.337 24.483-45.24 56.747-53.054 93.129-7.379 34.452-12.865 72.121-16.668 114.471-3.112 29.611-5.478 65.934-6.534 102.584-0.561 29.804-0.781 68.058-0.781 117.21s0.219 87.479 0.731 115.127c0.512 27.648 2.706 62.537 6.583 104.741 3.803 42.203 9.509 79.945 17.262 113.225 8.192 37.303 25.819 68.754 52.955 94.354 27.063 25.6 58.807 40.448 95.086 44.544 113.737 12.8 285.257 19.163 515.072 19.163 229.669 0 401.335-6.363 514.926-19.163 36.352-4.096 68.169-19.017 95.598-44.544 27.355-25.6 45.129-57.051 53.321-94.354 7.168-33.28 12.654-70.949 16.457-113.225 3.877-42.203 6.071-77.093 6.583-104.741s0.731-65.975 0.731-115.127z" />
<glyph unicode="&#xe91a;" glyph-name="company" d="M1002.667-21.333h-12.373v478.293c0 11.782-9.551 21.333-21.333 21.333h-115.627v47.36c0 11.782-9.551 21.333-21.333 21.333s-21.333-9.551-21.333-21.333v-47.36h-12.373c-11.782 0-21.333-9.551-21.333-21.333v-478.293h-57.6v856.747c0 11.782-9.551 21.333-21.333 21.333h-80.213v81.92c0 0.005 0 0.011 0 0.017 0 11.482-9.071 20.845-20.437 21.315l-170.709 0.001c-11.782 0-21.333-9.551-21.333-21.333v-81.92h-79.36c-11.782 0-21.333-9.551-21.333-21.333v-856.747h-58.88v478.293c0 11.782-9.551 21.333-21.333 21.333h-11.093v47.36c0 11.782-9.551 21.333-21.333 21.333s-21.333-9.551-21.333-21.333v-47.36h-115.627c-11.782 0-21.333-9.551-21.333-21.333v-478.293h-12.373c-11.782 0-21.333-9.551-21.333-21.333s9.551-21.333 21.333-21.333h981.333c11.782 0 21.333 9.551 21.333 21.333s-9.551 21.333-21.333 21.333zM448 917.333h128v-60.587h-128zM76.373-21.333v456.96h128v-456.96zM346.88-21.333v835.413h329.387v-835.413zM820.48-21.333v456.96h128v-456.96zM630.613 753.493h-237.227c-11.782 0-21.333-9.551-21.333-21.333s9.551-21.333 21.333-21.333h236.8c11.782 0 21.333 9.551 21.333 21.333s-9.551 21.333-21.333 21.333zM587.947 650.24h-194.56c-11.782 0-21.333-9.551-21.333-21.333s9.551-21.333 21.333-21.333h194.133c11.782 0 21.333 9.551 21.333 21.333s-9.551 21.333-21.333 21.333zM545.28 546.987h-151.893c-11.782 0-21.333-9.551-21.333-21.333s9.551-21.333 21.333-21.333h151.467c11.782 0 21.333 9.551 21.333 21.333s-9.551 21.333-21.333 21.333zM502.613 443.733h-109.227c-11.782 0-21.333-9.551-21.333-21.333s9.551-21.333 21.333-21.333h108.8c11.782 0 21.333 9.551 21.333 21.333s-9.551 21.333-21.333 21.333z" />
<glyph unicode="&#xe91b;" glyph-name="desk" d="M512 960c-282.77 0-512-229.23-512-512s229.23-512 512-512c282.77 0 512 229.23 512 512s-229.23 512-512 512zM981.333 469.333h-180.907c-0.698 80.337-12.495 157.641-33.927 230.83l145.713-5.976c40.191-64.050 65.431-141.154 69.085-223.868zM881.067 736.853h-128c-22.142 61.447-55.282 114.086-97.426 158.020 91.761-30.468 168.408-85.349 224.657-157.004zM533.333 469.333v224.853h187.733c21.765-66.981 34.93-144.14 36.258-224.179zM757.76 426.667c-1.337-80.713-14.501-157.872-37.828-230.477l-186.599 5.624v224.853zM490.667 917.333v0h42.667c69.973-11.52 131.413-78.933 170.667-178.347h-170.667v178.347c-6.414 1.312-13.786 2.063-21.333 2.063s-14.919-0.751-22.045-2.182l0.712-180.361h-170.667c39.253 99.84 100.693 166.827 170.667 180.48zM266.24 469.333c1.488 80.773 14.798 157.908 38.265 230.475l186.162-5.621v-224.853zM490.667 426.667v-224.853h-187.733c-21.765 66.981-34.93 144.14-36.258 224.179zM369.493 896c-41.998-43.781-75.138-96.419-96.307-154.796l-128.973-3.071c57.111 72.338 133.747 126.93 221.964 156.065zM113.493 695.467h142.507c-20.319-67.092-32.554-144.32-33.7-224.232l-179.634-0.622c4.34 83.382 29.978 159.971 71.526 225.474zM42.667 426.667h180.907c0.698-80.337 12.495-157.641 33.927-230.83l-144.433 5.976c-40.625 63.96-66.294 141.026-70.358 223.77zM142.080 159.147h128c22.142-61.447 55.282-114.086 97.426-158.020-91.426 30.619-167.766 85.471-223.799 156.994zM533.333-21.333v0h-42.667c-69.973 11.52-131.413 78.933-170.667 178.347h170.667v-178.347c6.414-1.312 13.786-2.063 21.333-2.063s14.919 0.751 22.045 2.182l-0.712 180.361h170.667c-39.253-99.84-100.693-166.827-170.667-180.48zM654.507-1.28c41.998 43.781 75.138 96.419 96.307 154.796l128.973 3.071c-57.249-71.84-133.869-125.998-221.961-154.795zM910.507 199.253h-142.507c20.319 67.092 32.554 144.32 33.7 224.232l179.634 0.622c-4.573-82.938-30.181-159.051-71.526-224.191z" />
<glyph unicode="&#xe91c;" glyph-name="email" d="M1000.96 917.333v0l-2.987 3.84c-20.543 23.833-50.771 38.83-84.501 38.83-0.293 0-0.585-0.001-0.877-0.003h-802.088c-0.033 0-0.071 0-0.11 0-34.123 0-64.66-15.347-85.088-39.515l-0.136-0.165c-15.518-17.856-25.025-41.297-25.173-66.955v-469.365c1.189-59.17 49.436-106.68 108.779-106.68 0.607 0 1.214 0.005 1.819 0.015l133.882-0.001c11.782 0 21.333 9.551 21.333 21.333s-9.551 21.333-21.333 21.333h-133.973c-0.518-0.015-1.128-0.023-1.74-0.023-35.782 0-64.927 28.418-66.097 63.916l-0.003 469.441c0.272 7.761 1.971 15.054 4.843 21.724l397.504-280.284c18.742-12.975 41.959-20.726 66.987-20.726s48.245 7.751 67.382 20.985l397.258 279.635c2.722-6.279 4.422-13.573 4.69-21.23l0.003-469.437c-1.172-35.605-30.317-64.023-66.1-64.023-0.612 0-1.222 0.008-1.83 0.025l-133.884-0.002c-11.782 0-21.333-9.551-21.333-21.333s9.551-21.333 21.333-21.333h133.973c0.514-0.009 1.12-0.014 1.727-0.014 59.343 0 107.59 47.511 108.778 106.569l0.002 469.444c-0.249 24.367-8.9 46.666-23.188 64.187zM554.667 631.467c-11.902-8.379-26.699-13.391-42.667-13.391s-30.765 5.012-42.904 13.55l-392.723 276.748c9.825 5.616 21.589 8.937 34.126 8.96h802.994c0.056 0 0.123 0 0.19 0 12.625 0 24.473-3.323 34.719-9.142zM512 405.333c-0.091 0-0.199 0-0.307 0-129.603 0-234.667-105.064-234.667-234.667s105.064-234.667 234.667-234.667c63.499 0 121.107 25.221 163.354 66.191 3.945 3.839 6.429 9.28 6.429 15.302 0 11.831-9.591 21.423-21.423 21.423-5.81 0-11.079-2.313-14.938-6.067-34.457-33.189-81.398-53.636-133.114-53.636-106.039 0-192 85.961-192 192s85.961 192 192 192c106.039 0 192-85.961 192-192 0-0.192 0-0.384-0.001-0.576 0-47.757-10.667-63.97-42.667-63.97s-42.667 21.333-42.667 64c0.004 0.352 0.006 0.768 0.006 1.184 0 59.617-48.329 107.947-107.947 107.947s-107.947-48.329-107.947-107.947c0-59.617 48.329-107.947 107.947-107.947 32.698 0 62 14.538 81.795 37.502 13.541-22.518 37.864-37.471 65.679-37.471 1.102 0 2.198 0.023 3.288 0.070 85.178-0.005 85.178 80.208 85.178 106.661-0.242 129.505-105.161 234.424-234.643 234.667zM512 106.667c-35.346 0-64 28.654-64 64s28.654 64 64 64c35.346 0 64-28.654 64-64s-28.654-64-64-64z" />
<glyph unicode="&#xe91d;" glyph-name="mobile" horiz-adv-x="597" d="M448 960h-298.667c-82.475 0-149.333-66.859-149.333-149.333v-725.333c0-82.475 66.859-149.333 149.333-149.333h298.667c82.475 0 149.333 66.859 149.333 149.333v725.333c0 82.475-66.859 149.333-149.333 149.333zM42.667 746.667h512v-554.667h-512zM149.333 917.333h298.667c58.91 0 106.667-47.756 106.667-106.667v-21.333h-512v21.333c0 58.91 47.756 106.667 106.667 106.667zM448-21.333h-298.667c-58.91 0-106.667 47.756-106.667 106.667v64h512v-64c0-58.91-47.756-106.667-106.667-106.667zM298.667 106.667c-23.564 0-42.667-19.103-42.667-42.667s19.103-42.667 42.667-42.667c23.564 0 42.667 19.103 42.667 42.667s-19.103 42.667-42.667 42.667z" />
<glyph unicode="&#xe91e;" glyph-name="call-customer" horiz-adv-x="1018" d="M813.653 234.667c-0.094 0-0.206 0-0.317 0-56.953 0-111.718 9.369-162.838 26.651-2.923 1.299-10.429 2.657-18.253 2.657-17.681 0-33.741-6.938-45.606-18.241l-101.52-76.774c-109.807 55.517-196.896 142.469-251.109 248.962l73.616 102.611c12.374 12.357 20.029 29.437 20.029 48.306 0 7.594-1.24 14.899-3.529 21.723-16.090 47.035-25.46 101.776-25.46 158.706 0 0.136 0 0.271 0 0.407 0-0.021 0-0.020 0-0.020 0 37.317-30.13 67.597-67.39 67.839h-163.436c-37.467 0-67.84-30.373-67.84-67.84 0.485-449.173 364.48-813.168 813.607-813.653 37.514 0 67.887 30.373 67.887 67.84v162.56c0.001 0.127 0.001 0.277 0.001 0.427 0 37.467-30.373 67.84-67.84 67.84 0 0-0.001 0-0.001 0zM838.827 4.267c0-13.903-11.27-25.173-25.173-25.173-425.46 0.485-770.259 345.135-770.987 770.491 0 13.972 11.27 25.242 25.173 25.242h163.413c13.718-0.24 24.747-11.417 24.747-25.17 0-0.001 0-0.003 0-0.004 0.197-61.093 10.332-119.753 28.871-174.539-0.487 1.652-0.113-0.898-0.113-3.536 0-8.288-3.692-15.713-9.521-20.721l-85.37-112.244c-2.035-3.209-3.243-7.117-3.243-11.307s1.208-8.098 3.294-11.394c61.331-127.092 161.623-227.383 285.169-287.18 6.854-3.575 10.759-4.754 14.939-4.754s8.085 1.179 11.401 3.222l114.253 85.279c4.543 4.483 10.787 7.252 17.678 7.252 2.833 0 5.557-0.468 8.099-1.331 51.317-17.531 110.64-27.682 172.334-27.682 0.252 0 0.503 0 0.755 0.001 13.863 0 25.134-11.271 25.134-25.173zM763.733 960c-141.385 0-256-114.615-256-256s114.615-256 256-256c141.385 0 256 114.615 256 256s-114.615 256-256 256zM763.733 494.080c-117.821 0-213.333 95.513-213.333 213.333s95.513 213.333 213.333 213.333c117.821 0 213.333-95.513 213.333-213.333s-95.513-213.333-213.333-213.333zM884.907 803.413v0-158.72c-0.239-11.597-9.697-20.907-21.329-20.907-0.002 0-0.003 0-0.005 0v0c-11.599 0.237-20.911 9.696-20.911 21.329 0 0.151 0.002 0.303 0.005 0.453v106.217l-162.56-161.707c-3.355-2.302-7.503-3.676-11.972-3.676-11.782 0-21.333 9.551-21.333 21.333 0 4.035 1.12 7.808 3.066 11.025l160.8 164.171h-111.36c-11.782 0-21.333 9.551-21.333 21.333s9.551 21.333 21.333 21.333v0h169.813l4.267-2.987h2.56c1.128-1.243 2.12-2.643 2.932-4.155l0.055-2.672c3.196-3.245 5.362-7.513 5.962-12.268z" />
<glyph unicode="&#xe91f;" glyph-name="team" d="M320 533.333h384c0.082-0.001 0.178-0.002 0.275-0.002 11.782 0 21.333 9.551 21.333 21.333 0 1.206-0.1 2.388-0.292 3.54l-7.236 42.542c-14.912 87.599-83.068 155.755-169.44 170.494 35.833 14.183 61.707 49.368 61.707 90.596 0 53.255-43.172 96.427-96.427 96.427s-96.427-43.172-96.427-96.427c0-41.228 25.874-76.413 62.27-90.202-86.936-15.132-155.092-83.288-169.831-169.661l-11.266-43.893c-0.175-1.027-0.275-2.209-0.275-3.415 0-11.782 9.551-21.333 21.333-21.333 0.097 0 0.193 0.001 0.29 0.002zM458.24 863.573c0 29.691 24.069 53.76 53.76 53.76s53.76-24.069 53.76-53.76c0-29.691-24.069-53.76-53.76-53.76s-53.76 24.069-53.76 53.76zM348.587 595.2c13.782 78.929 81.787 138.162 163.627 138.162s149.845-59.234 163.483-137.168l3.131-20.194h-333.653zM628.48 487.68c-3.898-3.867-6.31-9.225-6.31-15.147s2.413-11.28 6.309-15.145l78.508-78.508c3.876-3.876 9.232-6.274 15.147-6.274 11.83 0 21.421 9.59 21.421 21.421 0 5.915-2.398 11.27-6.274 15.147l-78.507 78.507c-3.867 3.898-9.225 6.31-15.147 6.31s-11.28-2.413-15.145-6.309zM302.080 372.907c5.856 0.086 11.127 2.518 14.93 6.397l78.51 78.51c3.876 3.876 6.274 9.232 6.274 15.147 0 11.83-9.59 21.421-21.421 21.421-5.915 0-11.27-2.398-15.147-6.274l-78.080-78.933c-3.772-3.845-6.1-9.118-6.1-14.935 0-11.677 9.381-21.162 21.018-21.331zM1016.32 4.693c-14.912 87.599-83.068 155.755-169.44 170.494 35.833 14.183 61.707 49.368 61.707 90.596 0 53.255-43.172 96.427-96.427 96.427s-96.427-43.172-96.427-96.427c0-41.228 25.874-76.413 62.27-90.202-86.936-15.132-155.092-83.288-169.831-169.661l-7.426-43.893c-0.175-1.026-0.275-2.208-0.275-3.414 0-11.729 9.465-21.247 21.173-21.333h384.008c11.717 0.086 21.182 9.604 21.182 21.333 0 1.205-0.1 2.388-0.292 3.539zM756.907 266.24c0 29.691 24.069 53.76 53.76 53.76s53.76-24.069 53.76-53.76c0-29.691-24.069-53.76-53.76-53.76s-53.76 24.069-53.76 53.76zM643.84-21.333l2.987 19.2c13.782 78.929 81.787 138.162 163.627 138.162s149.845-59.234 163.483-137.168l3.131-20.194zM247.040 176.213c37.059 14.010 62.933 49.195 62.933 90.423 0 53.255-43.172 96.427-96.427 96.427s-96.427-43.172-96.427-96.427c0-41.228 25.874-76.413 62.27-90.202-86.936-15.132-155.092-83.288-169.831-169.661l-7.426-43.893c-0.474-1.677-0.746-3.603-0.746-5.592 0-11.294 8.776-20.538 19.881-21.285l384.065-0.004c11.717 0.086 21.182 9.604 21.182 21.333 0 1.205-0.1 2.388-0.292 3.539l-7.236 42.542c-14.224 88.841-83.23 158.135-170.74 172.635zM161.707 266.24c0.024 29.673 24.084 53.718 53.76 53.718 29.691 0 53.76-24.069 53.76-53.76s-24.069-53.76-53.76-53.76c-0.75 0-1.497 0.015-2.24 0.046-29.584-0.003-53.654 24.066-53.654 53.757zM46.507-21.333l2.987 19.2c13.782 78.929 81.787 138.162 163.627 138.162s149.845-59.234 163.483-137.168l3.131-20.194zM576 106.667h-128c-11.782 0-21.333-9.551-21.333-21.333s9.551-21.333 21.333-21.333h128c11.782 0 21.333 9.551 21.333 21.333s-9.551 21.333-21.333 21.333z" />
<glyph unicode="&#xe920;" glyph-name="user" d="M512 490.667c129.603 0 234.667 105.064 234.667 234.667s-105.064 234.667-234.667 234.667c-129.603 0-234.667-105.064-234.667-234.667 0.242-129.505 105.161-234.424 234.643-234.667zM512 917.333c106.039 0 192-85.961 192-192s-85.961-192-192-192c-106.039 0-192 85.961-192 192s85.961 192 192 192zM661.333 405.333h-298.667c-200.107 0-362.667-136.96-362.667-305.493v-142.507c0-11.782 9.551-21.333 21.333-21.333h981.333c11.782 0 21.333 9.551 21.333 21.333v142.507c0 168.533-162.56 305.493-362.667 305.493zM981.333-21.333h-938.667v121.173c0 145.067 143.36 262.827 320 262.827h298.667c176.64 0 320-118.187 320-263.253z" />
<glyph unicode="&#xe921;" glyph-name="call-missed" d="M1006.507 306.773c-126.157 123.931-299.26 200.435-490.232 200.435-195.007 0-371.383-79.771-498.276-208.461-10.74-11.116-17.31-26.164-17.31-42.747s6.57-31.631 17.248-42.684l97.263-99.822c10.938-10.814 25.983-17.493 42.588-17.493 0.028 0 0.056 0 0.083 0 16.716 0.368 31.746 7.313 42.657 18.341 31.985 32.050 68.828 59.226 109.336 80.334 21.829 10.884 35.123 30.172 36.158 52.659l15.792 106.373c45.841 16.346 98.72 25.793 153.805 25.793 51.77 0 101.591-8.344 148.192-23.761l10.323-101.446c-0.005-0.283-0.007-0.617-0.007-0.952 0-23.504 13.384-43.882 32.947-53.929 42.745-21.526 79.064-48.036 110.407-79.505 11.005-10.773 26.067-17.413 42.68-17.413s31.675 6.64 42.677 17.41l99.403 99.403c12.619 11.301 20.523 27.644 20.523 45.833 0 16.083-6.18 30.723-16.295 41.675zM975.787 250.453l-99.413-99.413c-3.324-3.344-7.927-5.414-13.013-5.414s-9.689 2.070-13.012 5.413c-34.564 33.878-74.541 62.404-118.48 84.13-8.667 4.645-12.624 10.995-12.624 18.268 0 0.753 0.042 1.495 0.125 2.226l-15.368 118.95c-1.112 8.235-6.786 14.907-14.356 17.449-51.051 18.16-109.764 28.63-170.921 28.63-64.742 0-126.743-11.733-183.994-33.188-3.992-1.333-9.622-7.818-10.873-15.757l-17.936-122.574c-0.053-7.443-4.333-13.874-10.557-17.016-47.987-23.885-89.063-53.24-124.803-88.047-3.263-3.14-7.851-5.139-12.907-5.139s-9.644 1.998-13.019 5.248l-96.847 97.274c-3.244 3.369-5.242 7.958-5.242 13.013s1.998 9.644 5.248 13.019c120.769 121.238 287.868 196.261 472.49 196.261 0.088 0 0.176 0 0.264 0 0.958 0.005 2.106 0.008 3.255 0.008 176.663 0 336.608-71.579 452.415-187.318 3.216-3.299 5.201-7.817 5.201-12.798 0-5.193-2.157-9.882-5.625-13.22zM300.8 637.44l-9.813 150.613c-0.134 0.897-0.21 1.933-0.21 2.987s0.076 2.089 0.224 3.102c-0.031 0.203-0.041 0.576-0.041 0.951s0.010 0.748 0.029 1.118c1.775 6.731 6.701 12.079 13.079 14.409l3.132 0.046h5.547l150.613-10.24c11.237-0.674 20.094-9.951 20.094-21.297 0-0.463-0.015-0.923-0.044-1.378-0.9-11.207-10.267-20.011-21.691-20.011-0.323 0-0.645 0.007-0.964 0.021l-93.821 6.398 153.6-153.173 176.213 176.213c3.876 3.876 9.232 6.274 15.147 6.274 11.83 0 21.421-9.59 21.421-21.421 0-5.915-2.398-11.27-6.274-15.147l-191.573-191.147c-3.867-3.898-9.225-6.31-15.147-6.31s-11.28 2.413-15.145 6.309l-168.108 168.535 6.4-94.293c0.026-0.393 0.041-0.853 0.041-1.316 0-11.346-8.857-20.623-20.035-21.294l-0.059-0.003c-0.393-0.026-0.853-0.041-1.316-0.041-11.346 0-20.623 8.857-21.294 20.035z" />
<glyph unicode="&#xe922;" glyph-name="call-phone" horiz-adv-x="1033" d="M1033.474 447.139c0-11.891-9.64-21.531-21.531-21.531s-21.531 9.64-21.531 21.531c-0.245 259.364-210.435 469.555-469.776 469.8-11.915 0-21.555 9.64-21.555 21.531s9.64 21.531 21.531 21.531c283.049-0.489 512.372-229.813 512.861-512.815zM494.345 740.817c169.619-0.245 307.028-137.805 307.028-307.458 0-11.891 9.64-21.531 21.531-21.531s21.531 9.64 21.531 21.531c0 193.436-156.688 350.275-350.066 350.52-11.914 0-21.554-9.64-21.554-21.531s9.64-21.531 21.531-21.531zM494.345 553.070c65.778-0.244 119.036-53.502 119.28-119.257 0-11.915 9.64-21.554 21.531-21.554s21.531 9.64 21.531 21.531c-0.244 89.56-72.781 162.097-162.318 162.341-11.915 0-21.554-9.64-21.554-21.531s9.64-21.531 21.531-21.531zM927.542 178.005v-172.246c0-39.003-31.618-70.621-70.621-70.621-473.37 0.49-856.922 384.345-856.922 857.783 0 39.003 31.618 70.621 70.621 70.621h172.246c39.003 0 70.621-31.618 70.621-70.621-0.002-0.49-0.003-1.070-0.003-1.65 0-59.764 9.771-117.246 27.803-170.935 1.104-2.796 2.377-10.372 2.377-18.247 0-19.623-7.907-37.4-20.709-50.317l-79.658-105.065c58.87-116.322 151.090-208.542 264.017-265.849l111.048 79.823c12.303 11.603 28.932 18.734 47.228 18.734 8.392 0 16.433-1.5 23.87-4.247 49.426-16.774 106.907-26.545 166.669-26.545 0.43 0 0.86 0.001 1.29 0.002 38.751-0.244 70.124-31.768 70.124-70.619 0 0 0-0.001 0-0.001zM884.481 178.005c0 15.221-12.339 27.559-27.559 27.559-0.116 0-0.254 0-0.391 0-65.005 0-127.508 10.717-185.836 30.481 1.387-0.235-1.718 0.322-4.952 0.322-7.778 0-14.803-3.222-19.813-8.404l-120.579-91.298c-3.251-2.008-7.192-3.197-11.411-3.197s-8.16 1.19-11.506 3.252c-133.313 64.262-238.638 169.17-301.813 298.441-3.728 7.034-4.947 10.978-4.947 15.206s1.219 8.173 3.325 11.5l91.238 118.331c7.299 5.475 11.97 14.109 11.97 23.834 0 2.39-0.282 4.715-0.815 6.942-18.253 53.673-28.812 115.73-28.812 180.253 0 0.444 0.001 0.888 0.002 1.333 0 15.152-12.339 27.491-27.559 27.491h-172.246c-0.645 0.054-1.397 0.084-2.155 0.084-15.099 0-27.362-12.142-27.557-27.195 0.489-449.303 364.574-813.388 813.812-813.879 15.269 0 27.607 12.339 27.607 27.559z" />
<glyph unicode="&#xe923;" glyph-name="voice-mail" d="M942.933 789.333h-861.867c-44.772 0-81.067-36.295-81.067-81.067v-537.173c0-44.772 36.295-81.067 81.067-81.067h861.867c44.772 0 81.067 36.295 81.067 81.067v537.173c0 44.772-36.295 81.067-81.067 81.067zM981.333 171.093c0-21.208-17.192-38.4-38.4-38.4h-861.867c-21.208 0-38.4 17.192-38.4 38.4v537.173c0 21.208 17.192 38.4 38.4 38.4h861.867c21.208 0 38.4-17.192 38.4-38.4zM725.333 612.693c-0.926 0.018-2.019 0.028-3.113 0.028-94.257 0-170.667-76.41-170.667-170.667 0-53.224 24.363-100.757 62.546-132.056l-204.073-0.239c38.49 31.538 62.857 79.075 62.857 132.304 0 94.257-76.41 170.667-170.667 170.667-1.248 0-2.494-0.013-3.736-0.040-95.25 0.003-172.615-77.362-172.615-172.797s77.365-172.8 172.8-172.8h435.627c93.52 2.501 168.378 78.908 168.378 172.8 0 95.467-77.391 172.858-172.858 172.858-1.575 0-3.146-0.021-4.711-0.063zM298.667 309.333c-0.635-0.011-1.383-0.017-2.133-0.017-71.871 0-130.133 58.263-130.133 130.133s58.263 130.133 130.133 130.133c71.865 0 130.123-58.253 130.133-130.115 0.011-0.636 0.018-1.384 0.018-2.134 0-70.692-57.308-128-128-128-0.006 0-0.012 0-0.019 0zM725.333 309.333c-0.635-0.011-1.383-0.017-2.133-0.017-71.871 0-130.133 58.263-130.133 130.133s58.263 130.133 130.133 130.133c71.865 0 130.123-58.253 130.133-130.115 0.011-0.636 0.018-1.384 0.018-2.134 0-70.692-57.308-128-128-128-0.006 0-0.012 0-0.019 0zM356.693 468.053l-27.733-28.16 27.733-28.16c4.506-3.932 7.337-9.686 7.337-16.1 0-11.782-9.551-21.333-21.333-21.333-6.521 0-12.359 2.926-16.272 7.536l-27.759 27.337-27.307-27.733c-3.724-3.251-8.629-5.233-13.996-5.233-11.782 0-21.333 9.551-21.333 21.333 0 5.261 1.904 10.077 5.062 13.797l27.708 28.129-27.733 28.16c-3.132 3.689-5.036 8.505-5.036 13.766 0 11.782 9.551 21.333 21.333 21.333 5.368 0 10.272-1.982 14.021-5.255l27.281-27.285 27.307 27.733c3.939 4.641 9.776 7.567 16.297 7.567 11.782 0 21.333-9.551 21.333-21.333 0-6.415-2.831-12.168-7.312-16.079zM783.36 411.307c4.506-3.932 7.337-9.686 7.337-16.1 0-11.782-9.551-21.333-21.333-21.333-6.521 0-12.359 2.926-16.272 7.536l-31.599 32.031-23.040-23.467c-3.939-4.641-9.776-7.567-16.297-7.567-11.782 0-21.333 9.551-21.333 21.333 0 6.415 2.831 12.168 7.312 16.079l23.492 23.915-23.467 23.893c-4.506 3.932-7.337 9.686-7.337 16.1 0 11.782 9.551 21.333 21.333 21.333 6.521 0 12.359-2.926 16.272-7.536l23.065-23.497 23.040 23.467c3.724 3.251 8.629 5.233 13.996 5.233 11.782 0 21.333-9.551 21.333-21.333 0-5.261-1.904-10.077-5.062-13.797l-23.441-23.863z" />
<glyph unicode="&#xe924;" glyph-name="arrow-button-left" d="M496.856 800.107c24.945 25.39 24.945 66.556 0 91.946s-65.388 25.39-90.333 0l-383.251-390.095c-24.945-25.39-24.945-66.556 0-91.946l383.251-390.095c24.945-25.39 65.388-25.39 90.333 0s24.945 66.556 0 91.946l-338.085 344.122 338.085 344.122zM119.283 392.109h842.323c34.459 0 62.394 28.598 62.394 63.875s-27.935 63.875-62.394 63.875h-842.323c-34.459 0-62.394-28.598-62.394-63.875s27.935-63.875 62.394-63.875z" />
<glyph unicode="&#xe925;" glyph-name="arrow-button-right" d="M527.144 800.107c-24.945 25.39-24.945 66.556 0 91.946s65.388 25.39 90.333 0l383.251-390.095c24.945-25.39 24.945-66.556 0-91.946l-383.251-390.095c-24.945-25.39-65.388-25.39-90.333 0s-24.945 66.556 0 91.946l338.085 344.122-338.085 344.122zM904.717 392.109h-842.323c-34.459 0-62.394 28.598-62.394 63.875s27.935 63.875 62.394 63.875h842.323c34.459 0 62.394-28.598 62.394-63.875s-27.935-63.875-62.394-63.875z" />
<glyph unicode="&#xe926;" d="M0 960h1024v-1024h-1024v1024z" />
<glyph unicode="&#xe927;" d="M505.925-42.667c-267.632 0-484.591 219.679-484.591 490.667s216.959 490.667 484.591 490.667h23.597c267.632-6.48 479.403-231.412 473.003-502.4s-228.547-485.413-496.179-478.933h-0.421zM501.471 896c-245.302-5.768-440.323-207.817-437.439-453.204s202.599-442.796 447.968-442.796c245.37 0 445.085 197.409 447.968 442.796s-192.138 447.436-437.439 453.204h-21.058zM715.093 243.627c3.856 3.843 6.024 9.063 6.024 14.507s-2.167 10.664-6.024 14.507l-182.187 183.893v273.493c0 11.782-9.551 21.333-21.333 21.333s-21.333-9.551-21.333-21.333v-282.027c-0.013-5.437 2.136-10.656 5.973-14.507l188.16-188.16c3.843-3.856 9.063-6.024 14.507-6.024s10.664 2.167 14.507 6.024l1.707-1.707z" />
<glyph unicode="&#xe928;" glyph-name="agent" d="M533.423 319.893c-37.275 0-63.839 17.995-63.839 42.845s26.992 42.845 63.839 42.845 63.839-17.995 63.839-42.845-26.992-42.845-63.839-42.845zM556.559 357.168v0zM532.137 362.738v0zM512 234.631c-104.971 0-198.373 85.69-236.934 214.226-35.562 1.285-60.84 46.273-60.84 105.828-0.002 0.34-0.004 0.743-0.004 1.146 0 16.824 2.348 33.1 6.734 48.517l-0.304-1.248c-3.86 17.034-6.189 36.671-6.425 56.812l-0.002 0.172c16.717 151.286 143.842 267.9 298.203 267.9s281.485-116.614 298.081-266.55l0.121-1.35c-0.142-20.717-2.476-40.81-6.78-60.162l0.354 1.892c4.083-14.17 6.43-30.445 6.43-47.27 0-0.403-0.001-0.805-0.004-1.207v0.062c0-59.555-26.136-104.542-61.697-106.685-38.561-127.25-131.963-212.084-236.934-212.084zM289.633 494.273c1.095 0.207 2.355 0.325 3.642 0.325s2.547-0.118 3.769-0.345l-0.127 0.019c6.421-2.367 11.31-7.538 13.243-13.987l0.039-0.152c29.992-120.395 110.541-201.372 201.372-201.372s171.381 80.977 201.372 201.372c2.443 9.342 10.808 16.124 20.757 16.124 4.217 0 8.149-1.218 11.464-3.322l-0.087 0.052c6.427 0 22.708 21.851 22.708 62.982 0.009 0.551 0.013 1.202 0.013 1.853 0 13.876-2.199 27.239-6.267 39.759l0.256-0.909c-0.468 1.67-0.737 3.589-0.737 5.57s0.269 3.899 0.772 5.72l-0.035-0.15c3.654 15.646 5.831 33.66 5.997 52.154l0.001 0.117c-15.362 128.65-123.823 227.437-255.357 227.437s-239.995-98.786-255.238-226.214l-0.119-1.222c0.272-19.587 2.756-38.459 7.212-56.556l-0.357 1.714c0.468-1.67 0.737-3.589 0.737-5.57s-0.269-3.899-0.772-5.72l0.035 0.15c-4.131-11.721-6.623-25.24-6.854-39.31l-0.001-0.108c0-42.845 15.853-63.839 21.423-63.839 3.184 1.956 6.995 3.201 11.078 3.425l0.062 0.003zM725.369 574.393c-0.022 0-0.048 0-0.075 0-8.732 0-16.244 5.224-19.58 12.717l-0.054 0.136c-8.92 21.032-15.943 45.542-19.91 71.064l-0.227 1.773c-88.005 6.556-166.796 41.458-228.378 95.496l0.441-0.38c-4.075-7.014-8.761-13.064-14.136-18.421l-0.002-0.002c-27.398-21.673-62.449-34.766-100.558-34.766-6.082 0-12.086 0.334-17.996 0.983l0.729-0.065c-4.798-20.836-7.547-44.761-7.547-69.329 0-12.557 0.718-24.947 2.116-37.13l-0.139 1.488c0.029-0.415 0.045-0.9 0.045-1.389 0-6.221-2.651-11.822-6.886-15.736l-0.014-0.013c-3.904-4.058-9.381-6.579-15.446-6.579-0.898 0-1.783 0.055-2.653 0.163l0.104-0.010c-15.82 2.401-34.348 3.947-53.171 4.279l-0.385 0.005c-11.831 0-21.423 9.591-21.423 21.423s9.591 21.423 21.423 21.423v0c11.568 0 23.993 0 34.276 0-1.040 7.597-1.634 16.377-1.634 25.296 0 32.512 7.89 63.182 21.859 90.198l-0.516-1.098c6.712 6.259 15.75 10.101 25.684 10.101 1.518 0 3.015-0.090 4.486-0.264l-0.178 0.017c3.742-0.387 8.085-0.607 12.48-0.607 27.386 0 52.772 8.565 73.624 23.162l-0.414-0.275c9.399 10.011 15.174 23.521 15.174 38.381 0 1.571-0.065 3.128-0.191 4.666l0.013-0.202c0 11.831 9.591 21.423 21.423 21.423s21.423-9.591 21.423-21.423v0c2.142-22.279 109.684-107.97 234.792-107.97 11.831 0 21.423-9.591 21.423-21.423v0c1.465-23.025 6.525-44.468 14.63-64.345l-0.492 1.363 42.845 3.428c0.513 0.044 1.111 0.068 1.714 0.068 11.869 0 21.491-9.622 21.491-21.491 0-11.266-8.669-20.507-19.7-21.417l-0.077-0.005-57.413-4.713zM447.732 531.548h-42.845c-11.831 0-21.423 9.591-21.423 21.423s9.591 21.423 21.423 21.423v0h42.845c11.831 0 21.423-9.591 21.423-21.423s-9.591-21.423-21.423-21.423v0zM618.685 531.548h-42.845c-11.831 0-21.423 9.591-21.423 21.423s9.591 21.423 21.423 21.423v0h42.845c11.831 0 21.423-9.591 21.423-21.423s-9.591-21.423-21.423-21.423v0zM575.839-64h-554.417c-0.187-0.006-0.407-0.009-0.628-0.009-11.831 0-21.423 9.591-21.423 21.423 0 1.829 0.229 3.604 0.66 5.299l-0.032-0.148 32.991 132.392c7.866 30.611 28.182 55.413 55.094 69.129l0.605 0.28 221.51 110.112c2.763 1.392 6.022 2.208 9.472 2.208 8.757 0 16.287-5.254 19.609-12.782l0.054-0.137 109.684-257.071 16.281 32.134c-19.551 23.622-33.346 52.696-38.835 84.609l-0.154 1.081c0 39.418 32.562 63.839 85.69 63.839s85.69-24.422 85.69-63.839c-5.643-32.995-19.439-62.068-39.235-85.996l0.245 0.305 16.281-32.134 109.684 257.071c3.376 7.665 10.906 12.919 19.663 12.919 3.45 0 6.709-0.815 9.596-2.264l-0.123 0.056 220.653-110.541c27.517-13.996 47.833-38.798 55.537-68.669l0.162-0.74 32.991-132.392c0.398-1.544 0.626-3.317 0.626-5.143 0-11.75-9.46-21.291-21.18-21.421h-428.464zM607.973-21.155h366.755l-26.564 106.256c-4.377 18.859-16.649 34.221-33.062 42.678l-0.358 0.168-200.515 100.258zM482.008-21.155h59.126l-26.992 54.413c-1.345 2.722-2.131 5.927-2.131 9.316 0 5.087 1.773 9.759 4.734 13.433l-0.032-0.041c17.523 19.923 30.72 44.093 37.851 70.743l0.282 1.237c0 19.28-29.992 21.423-42.845 21.423s-42.845 0-42.845-21.423c7.413-27.887 20.61-52.057 38.302-72.177l-0.17 0.198c2.929-3.633 4.702-8.306 4.702-13.392 0-3.388-0.787-6.593-2.187-9.441l0.056 0.126zM48.415-21.155h367.183l-106.256 248.074-200.944-100.258c-16.77-8.624-29.043-23.986-33.335-42.414l-0.085-0.431zM575.839 341.315c-11.831 0-21.423 9.591-21.423 21.423s9.591 21.423 21.423 21.423v0c47.13 0 171.381 26.136 171.381 85.69 0 11.831 9.591 21.423 21.423 21.423s21.423-9.591 21.423-21.423v0c-0.857-98.115-157.242-128.536-214.226-128.536z" />
<glyph unicode="&#xe929;" glyph-name="star" horiz-adv-x="1132" d="M574.195 960l172.787-315.284 374.461-57.344-288.013-257.994 81.112-372.628-340.345 171.924-345.627-171.924 86.393 372.628-288.013 257.994 374.407 57.29z" />
<glyph unicode="&#xe92a;" glyph-name="medium" horiz-adv-x="1200" d="M392 768v-792c0-8 0-24-8-32s-16-16-24-16c-8 0-16 0-24 8l-312 152c-8 8-16 16-24 24 0 8 0 24 0 32v768c0 8 0 16 8 24s8 8 24 8c8 0 16 0 32-8l328-168zM448 704l360-576-360 176c0 0 0 400 0 400zM1200 688v-704c0-8 0-24-8-32s-16-8-24-8-24 0-32 8l-296 152 360 584zM1200 768c0 0-64-96-168-272s-176-296-208-328l-256 424 216 352c0 16 24 16 32 16s16 0 16-8l368-184z" />
<glyph unicode="&#xe92b;" glyph-name="browser-icon" d="M42.667 874.453v-852.907c0-23.68 19.2-42.88 42.88-42.88h852.907c23.68 0 42.88 19.2 42.88 42.88v852.907c0 23.68-19.2 42.88-42.88 42.88h-852.907c-23.68 0-42.88-19.2-42.88-42.88zM0 874.453c0 47.232 38.272 85.547 85.547 85.547h852.907c47.232 0 85.547-38.272 85.547-85.547v-852.907c0-47.246-38.301-85.547-85.547-85.547v0h-852.907c-47.246 0-85.547 38.301-85.547 85.547v0 852.907zM42.667 746.667h938.667v128.085c0 23.381-19.2 42.581-42.88 42.581h-852.907c-23.723 0-42.88-19.072-42.88-42.581v-128.085zM0 874.752c0 47.104 38.272 85.248 85.547 85.248h852.907c47.232 0 85.547-38.315 85.547-85.248v-170.752h-1024v170.752zM170.667 832c0-23.564-19.103-42.667-42.667-42.667s-42.667 19.103-42.667 42.667c0 23.564 19.103 42.667 42.667 42.667s42.667-19.103 42.667-42.667zM298.667 832c0-23.564-19.103-42.667-42.667-42.667s-42.667 19.103-42.667 42.667c0 23.564 19.103 42.667 42.667 42.667s42.667-19.103 42.667-42.667zM426.667 832c0-23.564-19.103-42.667-42.667-42.667s-42.667 19.103-42.667 42.667c0 23.564 19.103 42.667 42.667 42.667s42.667-19.103 42.667-42.667z" />
<glyph unicode="&#xe92c;" glyph-name="search" d="M621.668 306.332c-44.476-31.692-98.895-50.332-157.668-50.332-150.221 0-272 121.779-272 272s121.779 272 272 272c150.221 0 272-121.779 272-272 0-75.111-30.445-143.111-79.667-192.333l191.916-191.916c8.802-8.802 8.588-22.915-0.249-31.751-8.898-8.898-23.052-8.948-31.751-0.249l-194.581 194.581zM464 288c132.548 0 240 107.452 240 240s-107.452 240-240 240c-132.548 0-240-107.452-240-240s107.452-240 240-240v0z" />
<glyph unicode="&#xe92d;" glyph-name="decrease" horiz-adv-x="1195" d="M606.464 4.267l588.203 955.733h-1194.667z" />
<glyph unicode="&#xe92e;" glyph-name="increase" horiz-adv-x="1195" d="M606.464 960l588.203-955.733h-1194.667z" />
<glyph unicode="&#xe92f;" glyph-name="form-product" d="M1004.308-64h-984.615c-11.815 0-19.692 7.877-19.692 19.692v677.415c0 11.815 7.877 19.692 19.692 19.692h984.615c11.815 0 19.692-7.877 19.692-19.692v-677.415c0-11.815-7.877-19.692-19.692-19.692zM39.385-24.615h945.231v638.031h-945.231v-638.031zM1004.308 613.415h-984.615c-7.877 0-15.754 3.938-15.754 11.815-3.938 7.877-3.938 15.754 0 19.692l220.554 307.2c3.938 3.938 7.877 7.877 15.754 7.877h543.508c7.877 0 11.815-3.938 15.754-7.877l220.554-307.2c3.938-7.877 3.938-15.754 0-19.692 0-7.877-7.877-11.815-15.754-11.815zM59.077 652.8h905.846l-192.985 267.815h-519.877l-192.985-267.815zM527.754 613.415c-11.815 0-19.692 7.877-19.692 19.692v307.2c0 11.815 7.877 19.692 19.692 19.692s19.692-7.877 19.692-19.692v-307.2c0-7.877-7.877-19.692-19.692-19.692zM901.908 38.4h-338.708c-11.815 0-19.692 7.877-19.692 19.692v133.908c0 11.815 7.877 19.692 19.692 19.692h338.708c11.815 0 19.692-7.877 19.692-19.692v-133.908c0-11.815-7.877-19.692-19.692-19.692zM582.892 77.785h299.323v94.523h-299.323v-94.523z" />
<glyph unicode="&#xe930;" glyph-name="tooltip" d="M512-64c-285.257 0-512 226.743-512 512s226.743 512 512 512c285.257 0 512-226.743 512-512s-226.743-512-512-512zM512 886.857c-241.371 0-438.857-197.486-438.857-438.857s197.486-438.857 438.857-438.857 438.857 197.486 438.857 438.857-197.486 438.857-438.857 438.857zM541.257 221.257c7.314 0 14.629 0 21.943 0l-7.314-65.829c-14.629-7.314-36.571-7.314-51.2-7.314-65.829 0-87.771 36.571-80.457 102.4l51.2 307.2h95.086l-51.2-292.571c-7.314-21.943 0-43.886 21.943-43.886zM541.257 630.857c-29.257 0-58.514 21.943-58.514 58.514s29.257 58.514 58.514 58.514c36.571 0 58.514-21.943 58.514-58.514 7.314-36.571-21.943-58.514-58.514-58.514z" />
<glyph unicode="&#xe931;" glyph-name="job-title" horiz-adv-x="1229" d="M1152 806.4h-332.8v76.8c0 42.415-34.385 76.8-76.8 76.8v0h-256c-42.415 0-76.8-34.385-76.8-76.8v0-76.8h-332.8c-42.415 0-76.8-34.385-76.8-76.8v0-716.8c0-42.415 34.385-76.8 76.8-76.8v0h1075.2c42.415 0 76.8 34.385 76.8 76.8v0 716.8c0 42.415-34.385 76.8-76.8 76.8v0zM460.8 883.2c0 14.138 11.462 25.6 25.6 25.6v0h256c14.138 0 25.6-11.462 25.6-25.6v0-76.8h-307.2zM76.8 755.2h1075.2c14.138 0 25.6-11.462 25.6-25.6v0-236.032l-388.608-102.4c-52.387-14.214-112.536-22.379-174.592-22.379s-122.204 8.166-179.43 23.481l4.838-1.102-388.608 102.4v236.032c0 14.138 11.462 25.6 25.6 25.6v0zM1152-12.8h-1075.2c-14.138 0-25.6 11.462-25.6 25.6v0 427.52l375.808-97.792c56.222-15.264 120.777-24.043 187.38-24.064h0.012c66.615 0.021 131.17 8.8 192.589 25.248l-5.197-1.184 375.808 97.792v-427.52c0-14.138-11.462-25.6-25.6-25.6v0zM614.4 396.8c56.554 0 102.4 45.846 102.4 102.4s-45.846 102.4-102.4 102.4c-56.554 0-102.4-45.846-102.4-102.4v0c0-56.554 45.846-102.4 102.4-102.4v0zM614.4 550.4c28.277 0 51.2-22.923 51.2-51.2s-22.923-51.2-51.2-51.2c-28.277 0-51.2 22.923-51.2 51.2v0c0 28.277 22.923 51.2 51.2 51.2v0z" />
<glyph unicode="&#xe932;" glyph-name="campaign-1" horiz-adv-x="1117" d="M321.769 310.225l520.052-251.159v840.611l-520.052-251.159v-338.339zM275.223 639.814h-68.189c-88.635 0-160.489-71.853-160.489-160.489s71.853-160.489 160.489-160.489v0h68.189v320.977zM321.769 258.513v-207.919c0-54.549-44.221-98.769-98.769-98.769s-98.769 44.221-98.769 98.769v0 238.964c-73.659 32.813-124.081 105.378-124.081 189.719 0 114.315 92.628 206.996 206.923 207.081h86.117l561.804 271.36c2.952 1.455 6.427 2.306 10.1 2.306 12.846 0 23.261-10.407 23.273-23.25v-914.805c-0.012-12.844-10.427-23.251-23.273-23.251-3.673 0-7.148 0.851-10.237 2.367l0.137-0.061-533.225 257.536zM988.672 620.637c-5.432 4.3-8.886 10.893-8.886 18.293 0 12.853 10.42 23.273 23.273 23.273 4.842 0 9.339-1.479 13.063-4.010l-0.081 0.052c63.116-45.94 101.004-107.706 101.004-178.874 0-71.215-37.888-133.073-101.004-178.967-3.788-2.777-8.542-4.443-13.684-4.443-12.865 0-23.294 10.429-23.294 23.294 0 7.722 3.758 14.567 9.544 18.805l0.065 0.046c51.991 37.748 81.873 86.435 81.873 141.219 0 54.691-29.929 103.424-81.92 141.219zM170.775 50.548c0-28.843 23.381-52.224 52.224-52.224s52.224 23.381 52.224 52.224v0 221.696h-104.448v-221.696z" />
<glyph unicode="&#xe933;" glyph-name="campaign-2" horiz-adv-x="1229" d="M600.269-15.514c-113.941 57.889-190.655 174.224-190.669 308.478v440.885c0 14.138-11.462 25.6-25.6 25.6s-25.6-11.462-25.6-25.6v0-440.883c0-0.004 0-0.009 0-0.014 0-154.184 88.087-287.795 216.682-353.251l2.249-1.039c3.341-1.709 7.288-2.71 11.469-2.71 14.151 0 25.622 11.471 25.622 25.622 0 9.97-5.694 18.61-14.008 22.845l-0.145 0.067zM1126.4 448c28.277 0 51.2 22.923 51.2 51.2v0 51.2c0 28.277-22.923 51.2-51.2 51.2v0-153.6zM1228.8 499.2c0-56.554-45.846-102.4-102.4-102.4v0h-25.6c-14.138 0-25.6 11.462-25.6 25.6v0 204.8c0 14.138 11.462 25.6 25.6 25.6v0h25.6c56.554 0 102.4-45.846 102.4-102.4v0-51.2zM230.4 755.2c336.896 0 514.099 44.39 778.189 165.069 7.168 3.277 64.461 29.645 81.613 37.427 3.112 1.451 6.756 2.297 10.598 2.297 14.136 0 25.596-11.457 25.6-25.593v0-819.2c-0.004-14.135-11.464-25.593-25.6-25.593-3.842 0-7.486 0.846-10.757 2.363l0.158-0.066-83.046 38.042c-262.963 120.115-440.474 164.454-776.755 164.454h-51.2c-98.969 0-179.2 80.231-179.2 179.2v0 102.4c0 98.969 80.231 179.2 179.2 179.2v0h51.2zM1075.2 894.515l-45.363-20.787c-270.336-123.546-454.554-169.728-799.437-169.728h-51.2c-70.692 0-128-57.308-128-128v0-102.4c0-70.692 57.308-128 128-128v0h51.2c344.218 0 528.794-46.080 798.054-169.062l46.746-21.504v739.533z" />
<glyph unicode="&#xe934;" glyph-name="category-company" d="M170.667 751.787c0 11.782 9.551 21.333 21.333 21.333v0h810.667c11.782 0 21.333-9.551 21.333-21.333v0-794.453c0-11.782-9.551-21.333-21.333-21.333v0h-170.667c-11.782 0-21.333 9.551-21.333 21.333v0c0 29.455-23.878 53.333-53.333 53.333s-53.333-23.878-53.333-53.333v0c0-11.782-9.551-21.333-21.333-21.333v0h-170.667c-11.782 0-21.333 9.551-21.333 21.333v0c0 29.455-23.878 53.333-53.333 53.333s-53.333-23.878-53.333-53.333v0c0-11.782-9.551-21.333-21.333-21.333v0h-170.667c-11.782 0-21.333 9.551-21.333 21.333v0 794.453zM213.333 730.453v-751.787h130.389c10.194 42.956 48.228 74.419 93.611 74.419s83.417-31.463 93.48-73.766l0.131-0.653h132.779c10.194 42.956 48.228 74.419 93.611 74.419s83.417-31.463 93.48-73.766l0.131-0.653h130.389v751.787h-768zM42.667 165.589v751.787h768v-80.299h42.667v101.589c0 11.782-9.551 21.333-21.333 21.333v0h-810.667c-11.782 0-21.333-9.551-21.333-21.333v0-794.411c0-11.782 9.551-21.333 21.333-21.333v0h85.333v42.667h-64zM682.667 356.565h213.333v42.667h-213.333zM682.667 450.048h213.333v42.667h-213.333zM682.667 263.125h213.333v42.667h-213.333zM682.667 543.488h106.667v42.667h-106.667zM301.312 263.125c-11.782 0-21.333 9.551-21.333 21.333v0 280.363c0 11.782 9.551 21.333 21.333 21.333v0h279.851c11.782 0 21.333-9.551 21.333-21.333v0-280.363c0-11.782-9.551-21.333-21.333-21.333v0h-279.851zM559.829 305.792v237.696h-237.184v-237.696h237.184z" />
<glyph unicode="&#xe935;" glyph-name="country-2" horiz-adv-x="896" d="M703.829 576.427c0 176.849-143.364 320.213-320.213 320.213s-320.213-143.364-320.213-320.213v0c0-176.849 143.364-320.213 320.213-320.213s320.213 143.364 320.213 320.213v0zM746.496 576.427c0-200.413-162.467-362.88-362.88-362.88s-362.88 162.467-362.88 362.88v0c0 200.413 162.467 362.88 362.88 362.88s362.88-162.467 362.88-362.88v0zM362.24 106.752v-149.419c0-11.782 9.551-21.333 21.333-21.333s21.333 9.551 21.333 21.333v0 149.419c0 11.782-9.551 21.333-21.333 21.333s-21.333-9.551-21.333-21.333v0zM128.213-64h510.763c11.782 0 21.333 9.551 21.333 21.333s-9.551 21.333-21.333 21.333v0h-510.763c-11.782 0-21.333-9.551-21.333-21.333s9.551-21.333 21.333-21.333v0zM700.587 893.397c175.104-175.104 175.104-458.965 0-634.027-175.061-175.061-458.923-175.061-634.027 0.043-3.832 3.705-9.060 5.989-14.821 5.989-11.782 0-21.333-9.551-21.333-21.333 0-5.761 2.283-10.988 5.994-14.827l-0.006 0.006c191.787-191.744 502.613-191.744 694.4-0.043 191.701 191.744 191.701 502.613 0 694.357-3.864 3.869-9.204 6.263-15.104 6.263-11.789 0-21.345-9.557-21.345-21.345 0-5.889 2.385-11.221 6.241-15.083v0zM700.587 863.189l60.373 60.373c3.705 3.832 5.989 9.060 5.989 14.821 0 11.782-9.551 21.333-21.333 21.333-5.761 0-10.988-2.283-14.827-5.994l-60.367-60.367c-3.705-3.832-5.989-9.060-5.989-14.821 0-11.782 9.551-21.333 21.333-21.333 5.761 0 10.988 2.283 14.827 5.994l-0.006-0.006zM36.437 199.040l60.373 60.373c3.856 3.862 6.241 9.194 6.241 15.083 0 11.789-9.557 21.345-21.345 21.345-5.9 0-11.24-2.393-15.104-6.262v0l-60.373-60.373c-3.856-3.862-6.241-9.194-6.241-15.083 0-11.789 9.557-21.345 21.345-21.345 5.9 0 11.24 2.393 15.104 6.262v0z" />
<glyph unicode="&#xe936;" glyph-name="no-emp-2" horiz-adv-x="983" d="M626.033 456.847c0.013 0.698 0.020 1.522 0.020 2.347 0 74.289-60.223 134.513-134.513 134.513s-134.513-60.223-134.513-134.513c0-0.825 0.007-1.649 0.022-2.471l-0.002 0.124c1.319-73.273 61.028-132.165 134.492-132.165s133.173 58.893 134.49 132.042l0.002 0.124zM666.993 456.847c0-96.922-78.571-175.493-175.493-175.493s-175.493 78.571-175.493 175.493v0c0 96.933 78.58 175.514 175.514 175.514s175.514-78.58 175.514-175.514v0zM836.116-8.212c0-11.311-9.169-20.48-20.48-20.48v0h-648.233c-11.311 0-20.48 9.169-20.48 20.48v0c0 182.764 154.501 330.547 344.596 330.547s344.596-147.784 344.596-330.547zM491.52 281.375c-160.645 0-291.881-118.907-302.899-269.107h605.798c-11.018 150.2-142.254 269.107-302.899 269.107zM253.215 857.6c0 0.006 0 0.013 0 0.020 0 33.932-27.508 61.44-61.44 61.44-33.925 0-61.428-27.496-61.44-61.418v-0.001c0-0.006 0-0.013 0-0.020 0-33.932 27.508-61.44 61.44-61.44 33.925 0 61.428 27.496 61.44 61.418v0.001zM294.175 857.6c0-0.006 0-0.013 0-0.020 0-56.554-45.846-102.4-102.4-102.4-56.547 0-102.388 45.834-102.4 102.378v0.001c0 0.006 0 0.013 0 0.020 0 56.554 45.846 102.4 102.4 102.4 56.547 0 102.388-45.834 102.4-102.378v-0.001zM383.549 611.84c0-11.311-9.169-20.48-20.48-20.48v0h-342.589c-11.311 0-20.48 9.169-20.48 20.48v0c0 101.99 86.016 184.32 191.775 184.32 105.677 0 191.775-82.33 191.775-184.32zM191.775 755.2c-76.145 0-138.854-53.576-149.299-122.88h298.598c-10.527 69.345-73.196 122.88-149.34 122.88zM852.705 857.6c0.013 0.478 0.021 1.042 0.021 1.607 0 33.932-27.508 61.44-61.44 61.44s-61.44-27.508-61.44-61.44c0-0.551 0.007-1.099 0.022-1.646l-0.002 0.081c0-0.006 0-0.013 0-0.020 0-33.932 27.508-61.44 61.44-61.44 33.925 0 61.428 27.496 61.44 61.418v0.001zM893.665 857.6c0.013-0.616 0.021-1.341 0.021-2.068 0-56.554-45.846-102.4-102.4-102.4s-102.4 45.846-102.4 102.4c0 0.713 0.007 1.424 0.022 2.134l-0.002-0.106c0 0.006 0 0.013 0 0.020 0 56.554 45.846 102.4 102.4 102.4 56.547 0 102.388-45.834 102.4-102.378v-0.001zM983.040 611.84c0-11.311-9.169-20.48-20.48-20.48v0h-342.589c-11.311 0-20.48 9.169-20.48 20.48v0c0 101.99 86.098 184.32 191.775 184.32 105.718 0 191.775-82.33 191.775-184.32zM791.265 755.2c-76.104 0-138.854-53.576-149.299-122.88h298.598c-10.445 69.345-73.155 122.88-149.299 122.88z" />
<glyph unicode="&#xe937;" glyph-name="partner-type" horiz-adv-x="853" d="M21.333-64c-11.782 0-21.333 9.551-21.333 21.333v0 981.333c0 11.782 9.551 21.333 21.333 21.333v0h810.667c11.782 0 21.333-9.551 21.333-21.333v0-981.333c0-11.782-9.551-21.333-21.333-21.333v0h-810.667zM42.667-21.333h768v938.667h-768v-938.667zM426.667 755.712c-74.91 0-135.637-60.727-135.637-135.637s60.727-135.637 135.637-135.637c74.895 0 135.613 60.703 135.637 135.592v135.682h-135.637zM426.667 441.771c-98.475 0-178.304 79.829-178.304 178.304s79.829 178.304 178.304 178.304v0h156.971c11.782 0 21.333-9.551 21.333-21.333v0-157.013c-0.024-98.456-79.844-178.261-178.304-178.261v0zM160 271.104h533.333c11.782 0 21.333 9.551 21.333 21.333s-9.551 21.333-21.333 21.333v0h-533.333c-11.782 0-21.333-9.551-21.333-21.333s9.551-21.333 21.333-21.333v0zM232.661 141.312h388.011c11.782 0 21.333 9.551 21.333 21.333s-9.551 21.333-21.333 21.333v0h-388.011c-11.782 0-21.333-9.551-21.333-21.333s9.551-21.333 21.333-21.333v0z" />
<glyph unicode="&#xe938;" glyph-name="search2" d="M393.301 851.797c66.961 67.449 159.728 109.201 262.246 109.201 204.066 0 369.493-165.428 369.493-369.493 0-102.54-41.769-195.324-109.221-262.266l-0.023-0.023c-66.762-66.257-158.724-107.204-260.25-107.204-204.066 0-369.493 165.428-369.493 369.493 0 101.547 40.964 193.526 107.269 260.314l-0.022-0.022zM423.467 821.632c-59.132-59.143-95.705-140.842-95.705-231.083 0-180.503 146.327-326.83 326.83-326.83 90.262 0 171.979 36.59 231.125 95.747v0c59.132 59.143 95.705 140.842 95.705 231.083 0 180.503-146.327 326.83-326.83 326.83-90.262 0-171.979-36.59-231.125-95.747v0zM393.301 359.467l-387.029-387.029c-3.705-3.832-5.989-9.060-5.989-14.821 0-11.782 9.551-21.333 21.333-21.333 5.761 0 10.988 2.283 14.827 5.994l386.981 386.981c3.718 3.835 6.010 9.071 6.010 14.843 0 11.782-9.551 21.333-21.333 21.333-5.751 0-10.97-2.275-14.806-5.975l0.006 0.006z" />
<glyph unicode="&#xe939;" glyph-name="team-size" d="M348.373 595.115c13.306 79.129 81.302 138.667 163.205 138.667 0.148 0 0.296 0 0.445-0.001h-0.023c0.114 0 0.25 0 0.385 0 81.911 0 149.917-59.536 163.106-137.695l0.136-0.972 3.157-19.072h-333.568l3.157 19.072zM458.24 863.573c0 29.611 24.107 53.76 53.76 53.76s53.803-24.149 53.803-53.76c0-29.696-24.149-53.845-53.76-53.845-29.713 0.024-53.797 24.093-53.845 53.798v0.005zM320 533.376h384c0.029 0 0.064 0 0.098 0 11.735 0 21.248 9.513 21.248 21.248 0 1.281-0.113 2.536-0.331 3.755l0.019-0.129-7.339 43.861c-14.892 88.248-83.787 156.854-170.959 171.144l-1.201 0.162c36.97 13.963 62.81 49.004 62.933 90.097v0.015c-0.073 53.234-43.196 96.372-96.417 96.469h-0.009c-53.253-0.048-96.415-43.181-96.512-96.417v-0.009c0-41.387 26.283-76.459 62.933-90.155-88.344-14.465-157.213-83.046-171.946-170.042l-0.171-1.222-7.339-43.904c-0.198-1.090-0.312-2.345-0.312-3.627 0-11.735 9.513-21.248 21.248-21.248 0.035 0 0.069 0 0.104 0h-0.005zM628.309 487.893c-3.859-3.86-6.246-9.193-6.246-15.083s2.387-11.222 6.246-15.083l78.592-78.635c3.851-3.88 9.186-6.282 15.083-6.282s11.232 2.402 15.081 6.28l0.001 0.001c3.859 3.86 6.246 9.193 6.246 15.083s-2.387 11.222-6.246 15.083l-78.592 78.635c-3.86 3.859-9.193 6.246-15.083 6.246s-11.222-2.387-15.083-6.246v0zM302.080 372.821c5.878 0.011 11.199 2.389 15.062 6.23l-0.001-0.001 78.549 78.635c3.87 3.856 6.264 9.19 6.264 15.083s-2.394 11.227-6.263 15.082l-0.001 0.001c-3.856 3.87-9.19 6.264-15.083 6.264s-11.227-2.394-15.082-6.263l-78.593-78.593c-3.801-3.863-6.148-9.167-6.148-15.019 0-11.771 9.495-21.324 21.244-21.418h0.009zM643.84-21.163l3.2 19.072c13.342 79.087 81.319 138.582 163.191 138.582 0.153 0 0.306 0 0.459-0.001h-0.024c0.136 0 0.297 0.001 0.458 0.001 81.894 0 149.882-59.542 163.034-137.697l0.135-0.971 3.157-18.987h-333.611zM756.864 266.283c0 29.696 24.149 53.845 53.76 53.845 0.013 0 0.028 0 0.043 0 29.738 0 53.845-24.107 53.845-53.845s-24.107-53.845-53.845-53.845c-29.738 0-53.845 24.107-53.845 53.845v0zM1016.363 4.907c-14.902 88.248-83.817 156.846-171.004 171.102l-1.199 0.162c36.98 13.96 62.832 48.998 62.976 90.094v0.018c-0.073 53.258-43.215 96.415-96.46 96.512h-0.009c-53.254-0.097-96.397-43.254-96.469-96.505v-0.007c0.144-41.113 25.995-76.152 62.313-89.892l0.663-0.22c-88.386-14.418-157.301-83.016-172.032-170.042l-0.171-1.222-7.339-43.861c-0.188-1.065-0.296-2.29-0.296-3.541 0-11.781 9.55-21.332 21.331-21.333h384c0.029 0 0.064 0 0.098 0 11.735 0 21.248 9.513 21.248 21.248 0 1.281-0.113 2.536-0.331 3.755l0.019-0.129-7.339 43.861zM46.507-21.163l3.2 19.072c13.342 79.087 81.319 138.582 163.191 138.582 0.153 0 0.306 0 0.459-0.001h-0.024c0.136 0 0.297 0.001 0.458 0.001 81.894 0 149.882-59.542 163.034-137.697l0.135-0.971 3.157-18.987h-333.611zM159.573 266.24c0 29.696 24.149 53.845 53.76 53.845 0.013 0 0.028 0 0.043 0 29.738 0 53.845-24.107 53.845-53.845s-24.107-53.845-53.845-53.845c-29.738 0-53.845 24.107-53.845 53.845v0zM246.869 176.128c36.945 13.986 62.761 49.018 62.891 90.096v0.016c-0.048 53.261-43.176 96.433-96.415 96.555h-0.012c-53.254-0.097-96.397-43.254-96.469-96.505v-0.007c0.144-41.113 25.995-76.152 62.313-89.892l0.663-0.22c-88.386-14.418-157.301-83.016-172.032-170.042l-0.171-1.222-7.339-43.861c-0.188-1.065-0.296-2.29-0.296-3.541 0-11.781 9.55-21.332 21.331-21.333h384c0.029 0 0.064 0 0.098 0 11.735 0 21.248 9.513 21.248 21.248 0 1.281-0.113 2.536-0.331 3.755l0.019-0.129-7.339 43.861c-14.902 88.248-83.817 156.846-171.004 171.102l-1.199 0.162zM576.128 106.752h-128.256c-11.782 0-21.333-9.551-21.333-21.333s9.551-21.333 21.333-21.333v0h128.256c11.782 0 21.333 9.551 21.333 21.333s-9.551 21.333-21.333 21.333v0z" />
<glyph unicode="&#xe93a;" glyph-name="num-emp" d="M0 469.333v192c0 11.782 9.551 21.333 21.333 21.333v0h213.333c11.782 0 21.333-9.551 21.333-21.333v0-192c-0.043-43.861-12.075-73.643-42.667-82.56v-152.107c0-11.782-9.551-21.333-21.333-21.333v0h-128c-11.782 0-21.333 9.551-21.333 21.333v0 152.107c-30.635 8.917-42.667 38.699-42.667 82.56zM42.667 640v-170.667c0-32.427 5.547-42.667 21.333-42.667 11.782 0 21.333-9.551 21.333-21.333v0-149.333h85.333v149.333c0 11.782 9.551 21.333 21.333 21.333v0c15.787 0 21.333 10.24 21.333 42.667v170.667h-170.667zM768 469.333v192c0 11.782 9.551 21.333 21.333 21.333v0h213.333c11.782 0 21.333-9.551 21.333-21.333v0-192c-0.043-43.861-12.075-73.643-42.667-82.56v-152.107c0-11.782-9.551-21.333-21.333-21.333v0h-128c-11.782 0-21.333 9.551-21.333 21.333v0 152.107c-30.635 8.917-42.667 38.699-42.667 82.56zM810.667 469.333c0-32.427 5.547-42.667 21.333-42.667 11.782 0 21.333-9.551 21.333-21.333v0-149.333h85.333v149.333c0 11.782 9.551 21.333 21.333 21.333v0c15.787 0 21.333 10.24 21.333 42.667v170.667h-170.667v-170.667zM938.667 810.667c-0.012 23.567-19.12 42.667-42.688 42.667-23.576 0-42.688-19.112-42.688-42.688 0-0.007 0-0.015 0-0.022v0.001c0.012-23.567 19.12-42.667 42.688-42.667 23.576 0 42.688 19.112 42.688 42.688 0 0.007 0 0.015 0 0.022v-0.001zM981.333 810.667c-0.012-47.131-38.222-85.333-85.355-85.333-47.14 0-85.355 38.215-85.355 85.355 0 0.007 0 0.015 0 0.022v-0.001c0.012 47.131 38.222 85.333 85.355 85.333 47.14 0 85.355-38.215 85.355-85.355 0-0.007 0-0.015 0-0.022v0.001zM170.667 810.667c-0.012 23.567-19.12 42.667-42.688 42.667-23.576 0-42.688-19.112-42.688-42.688 0-0.007 0-0.015 0-0.022v0.001c0.012-23.567 19.12-42.667 42.688-42.667 23.576 0 42.688 19.112 42.688 42.688 0 0.007 0 0.015 0 0.022v-0.001zM213.333 810.667c-0.012-47.131-38.222-85.333-85.355-85.333-47.14 0-85.355 38.215-85.355 85.355 0 0.007 0 0.015 0 0.022v-0.001c0.012 47.131 38.222 85.333 85.355 85.333 47.14 0 85.355-38.215 85.355-85.355 0-0.007 0-0.015 0-0.022v0.001zM384 320c0-35.157 28.843-64 64-64 11.782 0 21.333-9.551 21.333-21.333v0-256h85.333v256c0 11.782 9.551 21.333 21.333 21.333v0c35.157 0 64 28.843 64 64v298.667h-256v-298.667zM341.333 320v320c0 11.782 9.551 21.333 21.333 21.333v0h298.667c11.782 0 21.333-9.551 21.333-21.333v0-320c-0.127-51.319-36.36-94.139-84.633-104.409l-0.7-0.125v-258.133c0-11.782-9.551-21.333-21.333-21.333v0h-128c-11.782 0-21.333 9.551-21.333 21.333v0 258.133c-48.982 10.379-85.223 53.208-85.333 104.521v0.012zM597.333 832c0 47.128-38.205 85.333-85.333 85.333s-85.333-38.205-85.333-85.333v0c0-47.128 38.205-85.333 85.333-85.333s85.333 38.205 85.333 85.333v0zM640 832c0-70.692-57.308-128-128-128s-128 57.308-128 128v0c0 70.692 57.308 128 128 128s128-57.308 128-128v0z" />
<glyph unicode="&#xe93b;" glyph-name="address" d="M467.004 635.934v-395.987h60.235v396.047zM49.754 554.014v-504.35l297.562-84.51 327.861 76.137 299.068-84.932v504.29l-297.562 84.51-82.161-19.095 13.613-58.669 67.042 15.541 238.833-67.825v-379.061l-237.327 67.403-327.861-76.198-238.833 67.825v379.181l237.327-67.464 51.381 12.047-13.613 58.609-36.262-8.433zM505.495 787.968c3.976 0 7.469-3.614 7.469-8.312h60.235c0 37.707-30.118 68.548-67.704 68.548v-60.235zM317.982 437.941v-441.705h60.235v441.705zM645.783 514.138v-441.766h60.235v441.766zM586.21 757.85c0 50.778-40.056 91.678-89.088 91.678-49.092 0-89.148-40.9-89.148-91.678 0-50.839 40.056-91.738 89.148-91.738 49.032 0 89.088 40.96 89.088 91.738zM646.445 757.85c0-83.787-66.741-151.974-149.323-151.974-82.643 0-149.384 68.186-149.384 151.974 0 83.727 66.741 151.913 149.384 151.913 82.583 0 149.323-68.126 149.323-151.913z" />
<glyph unicode="&#xe93c;" glyph-name="designation" d="M937.354 26.585h-850.708c-11.815 0-19.692 7.877-19.692 19.692v204.8h-47.262c-11.815 0-19.692 7.877-19.692 19.692v319.015c0 39.385 27.569 78.769 70.892 102.4 15.754 7.877 35.446 15.754 55.138 15.754h768c19.692 0 39.385-3.938 55.138-15.754 47.262-23.631 74.831-59.077 74.831-102.4v-319.015c0-11.815-7.877-19.692-19.692-19.692h-47.262v-204.8c0-11.815-7.877-19.692-19.692-19.692zM106.338 65.969h811.323v204.8c0 11.815 7.877 19.692 19.692 19.692h47.262v299.323c0 27.569-19.692 51.2-51.2 70.892-11.815 3.938-23.631 7.877-39.385 7.877h-768c-15.754 0-27.569-3.938-39.385-7.877-27.569-19.692-47.262-43.323-47.262-70.892v-299.323h47.262c11.815 0 19.692-7.877 19.692-19.692v-204.8zM630.154 219.569h-236.308c-11.815 0-19.692 7.877-19.692 19.692v129.969c0 11.815 7.877 19.692 19.692 19.692h236.308c11.815 0 19.692-7.877 19.692-19.692v-129.969c0-11.815-7.877-19.692-19.692-19.692zM413.538 258.954h196.923v90.585h-196.923v-90.585zM697.108 668.554h-370.215c-11.815 0-19.692 7.877-19.692 19.692v31.508c0 82.708 63.015 149.662 141.785 149.662h129.969c78.769 0 141.785-66.954 141.785-149.662v-31.508c-3.938-11.815-11.815-19.692-23.631-19.692zM346.585 707.938h334.769v11.815c0 59.077-47.262 110.277-102.4 110.277h-129.969c-55.138 0-102.4-47.262-102.4-110.277v-11.815zM393.846 251.077h-330.831c-11.815 0-19.692 7.877-19.692 19.692s7.877 19.692 19.692 19.692h330.831c11.815 0 19.692-7.877 19.692-19.692s-7.877-19.692-19.692-19.692zM960.985 251.077h-330.831c-11.815 0-19.692 7.877-19.692 19.692s7.877 19.692 19.692 19.692h330.831c11.815 0 19.692-7.877 19.692-19.692s-7.877-19.692-19.692-19.692z" />
<glyph unicode="&#xe93d;" glyph-name="visitors" d="M468.677 432.246h39.385v-98.462h-39.385v98.462zM441.108 34.462h-441.108v126.031c0 55.138 35.446 106.338 90.585 126.031l189.046 66.954v82.708h39.385v-110.277l-216.615-74.831c-39.385-11.815-66.954-47.262-66.954-86.646v-86.646h401.723l3.938-43.323zM393.846 384.985c-118.154 0-216.615 110.277-216.615 244.185 0 137.846 98.462 244.185 216.615 244.185s216.615-110.277 216.615-244.185-98.462-244.185-216.615-244.185zM393.846 833.969c-98.462 0-177.231-90.585-177.231-204.8s78.769-204.8 177.231-204.8 177.231 90.585 177.231 204.8-78.769 204.8-177.231 204.8zM539.569 625.231c-47.262 0-82.708 19.692-114.215 63.015-35.446-35.446-94.523-59.077-149.662-59.077-31.508 0-59.077 7.877-86.646 19.692l19.692 35.446c19.692-11.815 43.323-15.754 66.954-15.754 51.2 0 114.215 27.569 129.969 63.015l19.692 31.508 15.754-27.569c35.446-55.138 70.892-74.831 126.031-63.015 3.938 0 7.877 0 15.754 0 3.938 0 3.938 0 7.877 0l3.938-39.385c-7.877 0-11.815 0-15.754 0-15.754-3.938-27.569-7.877-39.385-7.877zM740.431 22.646c-153.6 0-275.692 122.092-279.631 129.969-7.877 7.877-7.877 19.692 0 27.569 3.938 7.877 126.031 145.723 279.631 145.723s275.692-141.785 279.631-145.723c7.877-7.877 7.877-19.692 0-27.569s-126.031-129.969-279.631-129.969zM504.123 164.431c35.446-31.508 129.969-106.338 236.308-106.338 110.277 0 200.862 74.831 236.308 106.338-31.508 35.446-129.969 118.154-236.308 118.154-110.277 0-204.8-82.708-236.308-118.154zM740.431 69.908c-63.015 0-110.277 47.262-110.277 102.4s51.2 102.4 110.277 102.4 110.277-47.262 110.277-102.4-51.2-102.4-110.277-102.4zM740.431 235.323c-39.385 0-70.892-27.569-70.892-63.015s31.508-63.015 70.892-63.015 70.892 27.569 70.892 63.015-31.508 63.015-70.892 63.015z" />
<glyph unicode="&#xe93e;" glyph-name="link" d="M951.751 889.173c-44.979 43.793-106.489 70.8-174.308 70.8s-129.329-27.008-174.363-70.854l0.056 0.054-206.052-202.012c-99.556-97.678-90.34-253.326 0-341.902 15.132-14.848 31.858-26.965 49.55-36.921l37.604 36.921c24.69 24.178 15.986 52.452 15.588 72.818-5.819 3.975-10.91 8.127-15.625 12.666l0.038-0.036c-46.364 45.511-48.412 123.449 0 170.951l206.052 202.069c22.51 21.874 53.271 35.36 87.182 35.36s64.672-13.487 87.212-35.389l-0.030 0.029c22.251-21.701 36.052-51.977 36.052-85.476s-13.801-63.775-36.027-85.452l-0.025-0.024-136.249-133.575c3.982-21.333 27.591-71.964 15.417-155.477 0.569 0.569 1.308 0.91 1.934 1.536l206.052 202.012c44.559 43.375 72.203 103.935 72.203 170.951s-27.643 127.577-72.15 170.9l-0.053 0.051zM628.452 551.652c-14.077 13.706-29.975 25.653-47.269 35.417l-1.143 0.594-36.807-36.011c-24.121-23.666-15.588-51.257-15.189-71.168 5.291-3.698 10.468-7.68 15.189-12.345 45.34-44.373 47.388-120.491 0-166.912l-217.031-212.594c-46.99-46.080-123.449-46.080-170.382 0-21.746 21.178-35.235 50.742-35.235 83.456s13.49 62.278 35.21 83.431l0.025 0.025 148.708 145.806c-3.812 20.821-26.908 70.258-15.019 151.836-0.569-0.569-1.308-0.967-1.877-1.479l-217.088-212.708c-43.566-42.332-70.599-101.48-70.599-166.94s27.033-124.608 70.543-166.887l0.056-0.054c43.998-42.758 104.125-69.122 170.411-69.122s126.413 26.364 170.469 69.178l-0.058-0.056 217.031 212.651c95.573 93.582 90.34 245.362 0 333.881z" />
<glyph unicode="&#xe93f;" glyph-name="nominee" d="M984.615 487.385c0.404 2.081 0.404 4.22 0 6.302 0.171 0.778 0.171 1.585 0 2.363-1.559 2.34-3.567 4.348-5.908 5.908l-157.145 106.732v275.692c0.53 19.804-6.941 38.986-20.725 53.215s-32.72 22.305-52.53 22.404h-512c-40.521-0.217-73.256-33.127-73.255-73.649v-277.662l-154.388-103.975c-2.34-1.559-4.348-3.567-5.908-5.908-0.171-0.778-0.171-1.585 0-2.363-1.782-2.686-2.74-5.835-2.757-9.058 0 0 0 0 0 0v-433.231c1.481-43.793 37.314-78.583 81.132-78.769h821.957c45.026 0 81.526 36.501 81.526 81.526v430.474c0 0 0 0 0 0zM929.083 487.385l-107.126-65.378v139.028l107.126-73.649zM202.437 886.351c-0.001 18.771 15.101 34.049 33.871 34.265h512c9.088 0 17.803-3.61 24.229-10.036s10.036-15.141 10.036-24.229v-486.794l-53.957-33.477-94.917-57.895h-282.388l-63.803 39.385-85.071 51.988v486.794zM163.052 423.582l-107.126 63.803 107.126 72.074v-135.877zM903.089 14.769h-821.957c-23.12 0.216-41.749 19.020-41.748 42.142v396.209l272.542-167.385-191.015-161.477c-8.374-7.069-9.432-19.589-2.363-27.963s19.589-9.432 27.963-2.363l207.951 174.868h275.692l207.951-175.262c3.628-2.757 8.046-4.276 12.603-4.332 5.84-0.061 11.429 2.375 15.36 6.695 6.726 8.481 5.69 20.731-2.363 27.963l-191.015 161.477 272.542 167.778v-396.209c0-23.274-18.867-42.142-42.142-42.142zM315.077 433.822h346.585c10.788 0.21 19.483 8.905 19.692 19.692 0 10.876-8.817 19.692-19.692 19.692h-346.585c-10.876 0-19.692-8.817-19.692-19.692s8.817-19.692 19.692-19.692zM413.932 670.523l-29.538-91.372c-2.608-7.994 0.259-16.757 7.089-21.662 6.92-5.057 16.317-5.057 23.237 0l78.769 56.32 78.769-56.32c3.365-2.638 7.54-4.030 11.815-3.938 4.146-0.033 8.177 1.357 11.422 3.938 6.83 4.905 9.698 13.668 7.089 21.662l-29.538 91.372 78.769 56.32c6.792 5.111 9.631 13.944 7.089 22.055-2.68 9.645-12.168 15.745-22.055 14.178h-96.098l-28.751 90.978c-2.938 8.358-10.833 13.951-19.692 13.951s-16.754-5.593-19.692-13.951l-28.751-90.978h-96.098c-8.498-0.119-15.962-5.677-18.511-13.785-2.542-8.111 0.297-16.944 7.089-22.055l77.588-56.714zM458.043 723.692c8.5 0.014 16.071 5.377 18.905 13.391l15.36 47.262 15.36-47.262c2.833-8.014 10.404-13.377 18.905-13.391h49.625l-39.385-29.145c-6.937-5.008-9.941-13.86-7.483-22.055l15.36-47.262-39.385 29.145c-6.707 5.258-16.137 5.258-22.843 0l-39.385-29.145 15.36 47.262c2.457 8.195-0.546 17.048-7.483 22.055l-39.385 29.145h46.474z" />
<glyph unicode="&#xe940;" glyph-name="story" horiz-adv-x="939" d="M901.12 382.874l-67.584 67.584c-12.519 11.601-31.412 12.963-45.466 3.277v214.63c0.178 0.81 0.178 1.648 0 2.458 0.226 0.942 0.226 1.925 0 2.867-0.812 3.386-2.508 6.496-4.915 9.011l-273.613 271.155c-2.475 2.922-5.749 5.057-9.421 6.144h-403.866c-53.161 0-96.256-43.095-96.256-96.256v-831.488c0-53.161 43.095-96.256 96.256-96.256h594.33c25.529 0 50.012 10.141 68.063 28.193s28.193 42.535 28.193 68.063v186.778l68.813 68.813 45.466 44.646c13.906 13.915 13.906 36.466 0 50.381zM515.685 889.958l98.715-100.352 102.4-100.762h-146.227c-14.628 0-28.651 5.838-38.956 16.22s-16.039 24.448-15.93 39.076l-0.002 145.818zM745.882 32.256c0-30.539-24.757-55.296-55.296-55.296h-594.33c-14.699-0.11-28.828 5.68-39.222 16.074s-16.184 24.523-16.074 39.222v831.488c-0.11 14.699 5.68 28.828 16.074 39.222s24.523 16.184 39.222 16.074h378.47v-174.899c0-53.001 42.846-96.030 95.846-96.256h175.309v-233.472l-8.192-8.192-225.28-224.461c-1.972-2.137-3.503-4.643-4.506-7.373l-40.96-120.013c-4.375-13.403-0.534-28.126 9.83-37.683 6.522-5.855 14.993-9.067 23.757-9.011 5.115-0.188 10.192 0.941 14.746 3.277l109.363 47.923 4.915 2.867 115.098 115.098 1.229-144.589zM536.166 128.512l44.646-44.646-70.451-31.949 25.805 76.595zM616.038 106.394l-60.211 60.211 196.198 196.198 60.211-60.211-196.198-196.198zM840.909 331.674l-59.802 59.802 25.805 26.214 60.211-60.211-26.214-25.805zM126.157 478.72h534.528c11.219 0.218 20.262 9.261 20.48 20.48 0 11.311-9.169 20.48-20.48 20.48h-532.48c-11.311 0-20.48-9.169-20.48-20.48-0.053-10.557 7.928-19.424 18.432-20.48zM440.32 351.334h-314.163c-11.311 0-20.48-9.169-20.48-20.48s9.169-20.48 20.48-20.48h314.163c11.219 0.218 20.262 9.261 20.48 20.48 0 11.311-9.169 20.48-20.48 20.48z" />
<glyph unicode="&#xe941;" d="M0-64h1024v1024h-1024z" />
<glyph unicode="&#xe942;" d="M512 42.667c-221.867 0-405.333 183.467-405.333 405.333s183.467 405.333 405.333 405.333h290.133c64 0 119.467-51.2 119.467-119.467v-285.867c-4.267-221.867-187.733-405.333-409.6-405.333zM512 810.667c-200.533 0-362.667-162.133-362.667-362.667s162.133-362.667 362.667-362.667c200.533 0 362.667 162.133 362.667 362.667v290.133c0 42.667-34.133 76.8-76.8 76.8h-285.867z" />
</font>
</defs>
</svg>
